<?xml version="1.0" encoding="UTF-8" standalone="no"?> <svg><metadata> Created by FontForge 20110222 at Tue Feb 25 12:15:09 2014 By Orthosie Webhosting Generated by Fontographer 4.1 </metadata><defs><font id="Wyekan"><glyph glyph-name="uniFE50" unicode="﹛︀" d="M458 135q0 -53 -26 -84q-15 -22 -46 -40q-34 -11 -67 -11h-83q-174 0 -174 135v429h88v-391q0 -59 16 -74q11 -10 70 -10h76q36 0 52 20q7 28 7 64v391h87v-429z"></glyph><glyph glyph-name="uniFE51" unicode="﹚︀" d="M531 0q-75 0 -121 57q-44 -57 -118 -57h-82q-171 0 -171 135v429h86v-391q0 -30 3.5 -47t12.5 -27t69 -10h76q35 0 52 20q4 10 4 27q0 4 2 16.5t2 20.5v391h88v-399q0 -48 27 -64q21 -12 70 -12v-89z"></glyph><glyph glyph-name="uniFE52" unicode="﹛︁" d="M458 135q0 -53 -26 -84q-15 -22 -46 -40q-34 -11 -67 -11h-83q-174 0 -174 135v429h88v-391q0 -59 16 -74q11 -10 70 -10h76q36 0 52 20q7 28 7 64v391h87v-429zM320 616h-221l-51 -4q-21 -5 -30 -11q-16 -17 -29 -48l-81 31l23 46q17 30 31 41.5t46 20.5q20 5 64 8 q31 1 146 1h102v-85z"></glyph><glyph glyph-name="exclamdown" unicode="﹚︁" d="M531 0q-75 0 -121 57q-44 -57 -118 -57h-82q-171 0 -171 135v429h86v-391q0 -30 3.5 -47t12.5 -27t69 -10h76q35 0 52 20q4 10 4 27q0 4 2 16.5t2 20.5v391h88v-399q0 -48 27 -64q21 -12 70 -12v-89zM320 616h-221l-51 -4q-21 -5 -30 -11q-16 -17 -29 -48l-81 31l23 46 q17 30 31 41.5t46 20.5q20 5 64 8q31 1 146 1h102v-85z"></glyph><glyph glyph-name="cent" unicode="﹛︃" d="M458 135q0 -53 -26 -84q-15 -22 -46 -40q-34 -11 -67 -11h-83q-174 0 -174 135v429h88v-391q0 -59 16 -74q11 -10 70 -10h76q36 0 52 20q7 28 7 64v391h87v-429zM228 678l-149 -75l-12 24l50 27q-45 24 -45 64q0 46 45 70q13 7 27 7q16 -4 42 -12l-11 -23q-5 1 -14 4 t-14 4q-18 0 -33 -14q-15 -22 -15 -36q0 -39 40 -40q15 0 33 8q13 2 43 18z"></glyph><glyph glyph-name="sterling" unicode="﹚︃" d="M531 0q-75 0 -121 57q-44 -57 -118 -57h-82q-171 0 -171 135v429h86v-391q0 -30 3.5 -47t12.5 -27t69 -10h76q35 0 52 20q4 10 4 27q0 4 2 16.5t2 20.5v391h88v-399q0 -48 27 -64q21 -12 70 -12v-89zM228 678l-149 -75l-12 24l50 27q-45 24 -45 64q0 46 45 70q13 7 27 7 q16 -4 42 -12l-11 -23q-5 1 -14 4t-14 4q-18 0 -33 -14q-15 -22 -15 -36q0 -39 40 -40q15 0 33 8q13 2 43 18z"></glyph><glyph glyph-name="currency" unicode="﹛︅" d="M458 135q0 -53 -26 -84q-15 -22 -46 -40q-34 -11 -67 -11h-83q-174 0 -174 135v429h88v-391q0 -59 16 -74q11 -10 70 -10h76q36 0 52 20q7 28 7 64v391h87v-429zM231 -146l-149 -75l-12 24l50 27q-45 25 -45 64q0 46 45 70q13 7 27 7q16 -3 41 -11l-10 -23q-5 1 -14 4 t-14 4q-18 0 -34 -15q-14 -22 -14 -36q0 -38 40 -39q15 -1 32 7q14 3 43 18z"></glyph><glyph glyph-name="yen" unicode="﹚︅" d="M531 0q-75 0 -121 57q-44 -57 -118 -57h-82q-171 0 -171 135v429h86v-391q0 -30 3.5 -47t12.5 -27t69 -10h76q35 0 52 20q4 10 4 27q0 4 2 16.5t2 20.5v391h88v-399q0 -48 27 -64q21 -12 70 -12v-89zM231 -146l-149 -75l-12 24l50 27q-45 25 -45 64q0 46 45 70q13 7 27 7 q16 -3 41 -11l-10 -23q-5 1 -14 4t-14 4q-18 0 -34 -15q-14 -22 -14 -36q0 -38 40 -39q15 -1 32 7q14 3 43 18z"></glyph><glyph glyph-name="Egrave" unicode="﹛﹚﹤" d="M515 4q24 2 58 30q27 -23 52 -28q9 -4 30 -5q26 -1 46 -1h52q35 0 68 11q31 16 48 40q25 36 25 84v429h-86v-391q0 -48 -9 -64q-15 -20 -51 -20h-21q-18 0 -47 2q-18 1 -36 4q-28 14 -28 61v296h-89v-279q0 -28 -5 -50l-8 -20q-22 -1 -55 5q-11 6 -49 46l-264 281 l-61 -60l27 -28q-53 -54 -70 -79q-34 -51 -33 -100q0 -72 49 -119q28 -28 55.5 -38.5t63.5 -10.5q112 1 161 105l65 -57q22 -20 28 -22q10 -8 31 -12q5 -1 15.5 -7.5t22.5 -6.5q0 1 15 4zM705 598q0 -28 -16 -51q-17 -19 -43 -19q-49 0 -75 39q-30 -65 -90 -65q-27 0 -42 22 q-15 17 -15 42q-1 36 22 87l32 -17q-9 -23 -15 -49q0 -34 28 -34q55 0 53 92l43 24q1 -92 48 -92q29 0 29 32q0 18 -25 55l34 25q31 -44 32 -91zM593 867l-16 -169h-28l-19 169h63zM261 163q0 20 -16 48l-71 71q-77 -73 -77 -119q0 -23 20 -50.5t61 -27.5q32 0 57.5 23 t25.5 55z"></glyph><glyph glyph-name="agrave" unicode="َّ" d="M218 947l-265 -65l-12 40l264 68zM216 784q1 -28 -15 -51q-17 -19 -43 -19q-49 0 -75 39q-30 -65 -90 -65q-27 0 -42 22q-15 17 -15 42q-1 36 22 87l32 -17q-9 -23 -15 -49q0 -34 28 -34q55 0 53 92l43 24q1 -92 48 -92q29 0 29 32q0 18 -25 55l34 25q31 -44 31 -91z"></glyph><glyph glyph-name="acircumflex" unicode="ِّ" d="M216 894q2 -69 -58 -70q-49 -1 -75 39q-29 -65 -90 -65q-25 -1 -41 19t-16 46q-1 34 22 85l32 -16q-7 -20 -15 -49q0 -34 28 -34q55 0 53 92l43 23q1 -91 48 -91q29 0 29 32q0 16 -10 29q-1 4 -15 26l34 25q31 -46 31 -91zM222 751l-264 -65l-13 39l265 68z"></glyph><glyph glyph-name="adieresis" unicode="ُّ" d="M220 1010q1 -68 -84 -88l-181 -43l-10 37q75 16 125 35q-22 26 -22 54q0 30 25.5 55.5t55.5 25.5q34 1 64 -24q27 -23 27 -52zM216 784q1 -28 -15 -51q-17 -19 -43 -19q-49 0 -75 39q-30 -65 -90 -65q-27 0 -42 22q-15 17 -15 42q-1 36 22 87l32 -17q-9 -23 -15 -49 q0 -34 28 -34q55 0 53 92l43 24q1 -92 48 -92q29 0 29 32q0 18 -25 55l34 25q31 -44 31 -91zM173 1004q1 18 -16 30q-9 6 -23 6q-17 0 -28.5 -10.5t-11.5 -25.5t12.5 -26.5t27.5 -11.5q13 0 28 10q11 14 11 28z"></glyph><glyph glyph-name="ae" unicode="ًّ" d="M222 1030l-264 -66l-13 40l265 68zM222 944l-264 -66l-13 38l265 69zM216 784q1 -28 -15 -51q-17 -19 -43 -19q-49 0 -75 39q-30 -65 -90 -65q-27 0 -42 22q-15 17 -15 42q-1 36 22 87l32 -17q-9 -23 -15 -49q0 -34 28 -34q55 0 53 92l43 24q1 -92 48 -92q29 0 29 32 q0 18 -25 55l34 25q31 -44 31 -91z"></glyph><glyph glyph-name="egrave" unicode="ٍّ" d="M216 981q1 -39 -24 -59q-13 -11 -34 -13q-48 0 -75 41q-30 -65 -90 -65q-25 0 -41 19t-16 44q-1 35 22 87l32 -16q-7 -20 -15 -49q0 -35 28 -35q55 0 53 93l43 23q1 -91 48 -91q29 -1 29 31q0 17 -10 30q-1 4 -15 26l34 24q31 -45 31 -90zM222 838l-264 -66l-13 40 l265 68zM222 751l-264 -65l-13 39l265 68z"></glyph><glyph glyph-name="ecircumflex" unicode="ٌّ" d="M220 1010q1 -68 -84 -88l-181 -43l-10 37q42 12 42 48q0 19 -14 21q-12 0 -28 -12l-19 28q24 33 54 32q41 0 41 -44q0 -34 -19 -59q3 1 68 21q-22 26 -22 54q0 30 25.5 55.5t55.5 25.5q34 1 64 -24q27 -23 27 -52zM216 784q1 -28 -15 -51q-17 -19 -43 -19q-49 0 -75 39 q-30 -65 -90 -65q-27 0 -42 22q-15 17 -15 42q-1 36 22 87l32 -17q-9 -23 -15 -49q0 -34 28 -34q55 0 53 92l43 24q1 -92 48 -92q29 0 29 32q0 18 -25 55l34 25q31 -44 31 -91zM173 1004q1 18 -16 30q-9 6 -23 6q-17 0 -28.5 -10.5t-11.5 -25.5t12.5 -26.5t27.5 -11.5 q13 0 28 10q11 14 11 28z"></glyph><glyph glyph-name="Oacute" unicode="ﹱ" d="M283 575l-264 -65l-12 39l265 68z"></glyph><glyph glyph-name="Otilde" unicode="ﹲ" d="M283 -116l-264 -66l-12 39l265 69z"></glyph><glyph glyph-name="Ugrave" unicode="ﹴ" d="M283 662l-264 -66l-12 40l265 68zM283 575l-264 -65l-12 39l265 68z"></glyph><glyph glyph-name="Yacute" unicode="ﹶ" d="M282 642q1 -68 -85 -88l-180 -43l-11 38q42 11 42 47q0 20 -14 20q-11 0 -28 -10l-18 27q23 33 53 33q42 0 42 -44q0 -34 -20 -59q21 5 68 21q-21 27 -21 54q0 30 25.5 55t55.5 25q34 1 62 -23.5t29 -52.5zM235 636q1 18 -16 30q-10 7 -24 7q-39 0 -39 -37q0 -17 11 -26 q13 -12 28 -12q16 0 27.5 11t12.5 27z"></glyph><glyph glyph-name="germandbls" unicode="ﹷ" d="M278 608q1 -28 -16 -51q-16 -19 -43 -19q-48 0 -75 39q-29 -65 -89 -65q-28 0 -43 22q-14 17 -15 42q0 36 22 87l33 -17q-9 -23 -15 -49q0 -34 27 -34q55 0 54 92l42 24q1 -92 49 -92q29 0 29 32q0 18 -25 55l33 25q31 -44 32 -91z"></glyph><glyph glyph-name="aacute" unicode="ﹹ" d="M280 771l-265 -65l-12 40l264 68zM278 608q1 -28 -16 -51q-16 -19 -43 -19q-48 0 -75 39q-29 -65 -89 -65q-28 0 -43 22q-14 17 -15 42q0 36 22 87l33 -17q-9 -23 -15 -49q0 -34 27 -34q55 0 54 92l42 24q1 -92 49 -92q29 0 29 32q0 18 -25 55l33 25q31 -44 32 -91z"></glyph><glyph glyph-name="atilde" unicode="ﹻ" d="M278 718q1 -69 -59 -70q-48 -1 -75 39q-29 -65 -89 -65q-26 -1 -41.5 19t-16.5 46q0 34 22 85l33 -16q-8 -20 -15 -49q0 -34 27 -34q55 0 54 92l42 23q1 -91 49 -91q29 0 29 32q0 16 -10 29q-2 4 -15 26l33 25q31 -46 32 -91zM283 575l-264 -65l-12 39l265 68z"></glyph><glyph glyph-name="aring" unicode="ﹽ" d="M282 834q1 -68 -85 -88l-180 -43l-11 37q75 16 125 35q-21 26 -21 54q0 30 25.5 55.5t55.5 25.5q34 1 62 -23t29 -53zM278 608q1 -28 -16 -51q-16 -19 -43 -19q-48 0 -75 39q-29 -65 -89 -65q-28 0 -43 22q-14 17 -15 42q0 36 22 87l33 -17q-9 -23 -15 -49q0 -34 27 -34 q55 0 54 92l42 24q1 -92 49 -92q29 0 29 32q0 18 -25 55l33 25q31 -44 32 -91zM235 828q1 18 -16 30q-10 6 -24 6q-17 0 -28 -10.5t-11 -25.5t12.5 -26.5t26.5 -11.5q13 0 29 10q10 14 11 28z"></glyph><glyph glyph-name="ccedilla" unicode="ﹿ" d="M283 854l-264 -66l-12 40l265 68zM283 768l-264 -66l-12 38l265 69zM278 608q1 -28 -16 -51q-16 -19 -43 -19q-48 0 -75 39q-29 -65 -89 -65q-28 0 -43 22q-14 17 -15 42q0 36 22 87l33 -17q-9 -23 -15 -49q0 -34 27 -34q55 0 54 92l42 24q1 -92 49 -92q29 0 29 32 q0 18 -25 55l33 25q31 -44 32 -91z"></glyph><glyph glyph-name="eacute" unicode="آ" d="M278 805q1 -39 -24 -59q-14 -11 -35 -13q-48 0 -75 41q-29 -65 -89 -65q-25 0 -41 19t-17 44q0 35 22 87l33 -16q-8 -20 -15 -49q0 -35 27 -35q55 0 54 93l42 23q1 -91 49 -91q29 -1 29 31q0 17 -10 30q-2 4 -15 26l33 24q31 -45 32 -90zM283 662l-264 -66l-12 40l265 68 zM283 575l-264 -65l-12 39l265 68z"></glyph><glyph glyph-name="edieresis" unicode="أ" d="M282 834q1 -68 -85 -88l-180 -43l-11 37q42 12 42 48q0 19 -14 21q-12 0 -28 -12l-18 28q24 33 53 32q42 0 42 -44q0 -34 -20 -59q4 1 68 21q-21 26 -21 54q0 30 25.5 55.5t55.5 25.5q34 1 62 -23t29 -53zM278 608q1 -28 -16 -51q-16 -19 -43 -19q-48 0 -75 39 q-29 -65 -89 -65q-28 0 -43 22q-14 17 -15 42q0 36 22 87l33 -17q-9 -23 -15 -49q0 -34 27 -34q55 0 54 92l42 24q1 -92 49 -92q29 0 29 32q0 18 -25 55l33 25q31 -44 32 -91zM235 828q1 18 -16 30q-10 6 -24 6q-17 0 -28 -10.5t-11 -25.5t12.5 -26.5t26.5 -11.5q13 0 29 10 q10 14 11 28z"></glyph><glyph glyph-name="iacute" unicode="أ" d="M370 505h-162l-38 -3q-15 -3 -22 -8q-13 -12 -22 -35l-59 23q25 52 42 65q12 10 30 15q22 6 48 6l183 1v-64z"></glyph><glyph glyph-name="idieresis" unicode="ؤ" d="M236 608q0 -40 -28.5 -68.5t-67.5 -28.5q-40 0 -68.5 28.5t-28.5 68.5q0 37 29.5 66t67.5 29q39 0 69 -31q27 -29 27 -64zM188 609q0 20 -12.5 33.5t-37.5 13.5q-19 0 -33.5 -15t-14.5 -33q0 -22 14.5 -36.5t35.5 -14.5q19 0 33 14q15 11 15 38z"></glyph><glyph glyph-name="ntilde" unicode="ؤ" d="M304 630l-157 -80l-14 26l54 29q-48 24 -48 68q0 29 22 55q26 25 54 25q21 -5 44 -12l-12 -24q-5 1 -16 4q-4 1 -14 4q-19 0 -34 -16q-15 -21 -15 -36q0 -42 41 -43q26 0 81 27z"></glyph><glyph glyph-name="oacute" unicode="إ" d="M171 679l-16 -169h-28l-19 169h63z"></glyph><glyph glyph-name=".notdef" d="M69 0v700h412v-700h-412zM138 69h275v562h-275v-562z"></glyph><glyph glyph-name=".null"></glyph><glyph glyph-name="nonmarkingreturn"></glyph><glyph glyph-name="space" unicode=" "></glyph><glyph glyph-name="glyph4" d="M687 372l-52 -52q-3 -2 -5 -2t-4 2l-52 52q-2 3 -2 5t2 4l52 52q2 3 4 3t5 -3l52 -52q2 -2 3 -4q-1 -3 -3 -5zM687 273q5 -6 0 -10l-52 -48q-4 -4 -9 0l-51 48q-5 5 -1 10l52 56q4 5 9 0zM689 162q-23 -73 -104 -108v-48q0 -7 -7 -7h-38q-18 0 -32 17q-13 12 -35 33 q-36 -32 -99 -40q-19 -2 -38.5 -6t-20.5 -4q-6 0 -6 7v74q0 13 11 13q1 0 2.5 -3.5t12.5 -3.5q9 0 28 2q44 7 63 24q-38 53 -45 107q0 5 4 7q9 7 27 22q10 7 29 23q3 5 7 3q4 -1 4 -7q0 -75 63 -150q4 3 4 27v181l2 4l53 52q11 10 11 -4v-233q0 -22 10 -27h31q3 0 -10 13 q-19 20 -39 26q-8 5 -2 12l51 57q3 3 8 1q22 -12 54 -59q2 -4 1 -5zM376 83q0 -7 -6 -7q-61 -8 -61 4v297q0 2 3 4l53 52q3 4 7 3t4 -7v-346zM234 321l-52 -58q-2 -2 -5 -2q-2 0 -5 2l-52 58q-3 4 1 8l53 52q2 6 9 0l52 -52q6 -5 -1 -8zM323 59q-1 -3 -2 -4q-26 -33 -54 -54 q-2 -4 -8 0q-123 116 -140 218q0 3 5 8.5t21 20.5q10 7 29 23q4 5 7 3q4 -1 4 -7q0 -75 62 -150q5 2 9 27v181q1 1 3 4l53 52q11 11 11 -4v-318zM674 377l-44 43l-43 -43l43 -43zM674 269l-44 46l-43 -46l43 -40zM675 162q-27 40 -43 49l-43 -45q14 -7 30 -21q20 -17 20 -30 q0 -11 -13 -11h-34h-2q-18 10 -18 40v218l-39 -41v-177q0 -40 -22 -40q-3 0 -4 2q-63 75 -67 148q-10 -7 -19 -15.5t-26 -21.5q9 -54 46 -103q4 -3 -1 -8q-23 -23 -75 -30q-30 -4 -42 -1v-62q23 6 50 9q62 7 96 41q5 4 9 0l38 -39q12 -11 24 -11h32v46q0 4 4 5q76 32 99 98z M362 88v325l-39 -39v-284q0 -9 39 -2zM222 324l-45 44l-42 -44l42 -47zM309 60v302l-38 -41l-2 -178q-7 -39 -25 -39q-4 0 -4 2q-62 74 -68 148q-12 -14 -40 -38q17 -93 132 -202q20 16 45 46z"></glyph><glyph glyph-name="exclam" unicode="٠" d="M453 158q0 -55 -50.5 -101t-105.5 -46q-58 0 -108 45t-50 102q0 52 49.5 104.5t108.5 52.5q56 0 106 -50t50 -107zM383 158q0 49 -56 80q-13 7 -30 7q-34 0 -61 -27t-27 -60q0 -30 27 -59q6 -6 28 -18q15 -6 33 -6q33 0 59.5 24t26.5 59z"></glyph><glyph glyph-name="quotedbl" unicode="١" d="M360 -99h-85v271q0 50 -10 138q-3 25 -13 67l-8 32q-3 19 -12 38l84 28l31 -118q3 -31 10 -97q3 -27 3 -88v-271z"></glyph><glyph glyph-name="numbersign" unicode="٢" d="M469 322q3 -65 -66 -106q-20 -11 -32 -13q-8 -3 -33 -4q-40 -1 -85 28l1 -326h-89v257q0 119 -22 227q-7 33 -20 62l86 28l35 -145q13 -55 65 -55q27 0 48 18q7 7 14 22q4 8 6 28l-14 106l29 10l52 17l17 -83q6 -28 7 -54z"></glyph><glyph glyph-name="dollar" unicode="٣" d="M568 332q3 -40 -36 -88q-38 -36 -90 -38q-51 -2 -109 61q0 -63 -92 -64q-44 0 -87 23l1 -325h-87v257q0 170 -43 289l86 28l33 -145q13 -55 66 -55q17 0 27 4q6 3 22 14q19 18 22 50l-17 106l83 31q21 -114 19 -156l-1 -24q22 -27 55 -27q28 0 45 19q18 16 20 51l-15 106 l82 26l15 -117z"></glyph><glyph glyph-name="percent" unicode="۴" d="M526 228q-38 -18 -90 -34l-43 -7q-21 -3 -44 -3q-41 0 -76 8q-43 10 -80 27l1 -318h-86v264q0 62 -9 132q-1 7 -4 22q0 4 -2 11q0 13 -7 40l-20 77l83 28l23 -93l15 -79l45 -21q0 33 1 48q4 24 20 68q7 15 20 31q23 27 51 37q25 13 66 13q50 0 110 -28l-30 -75 q-37 26 -74 26q-44 1 -70 -36q-4 -4 -11 -17.5t-6 -29.5l2 -22q14 -37 64 -37q44 0 123 39z"></glyph><glyph glyph-name="ampersand" unicode="٤" d="M526 228q-38 -18 -90 -34l-43 -7q-21 -3 -44 -3q-41 0 -76 8q-43 10 -80 27l1 -318h-86v264q0 62 -9 132q-1 7 -4 22q0 4 -2 11q0 13 -7 40l-20 77l83 28l23 -93l15 -79l45 -21q0 33 1 48q4 24 20 68q7 15 20 31q23 27 51 37q25 13 66 13q50 0 110 -28l-30 -75 q-37 26 -74 26q-44 1 -70 -36q-4 -4 -11 -17.5t-6 -29.5l2 -22q14 -37 64 -37q44 0 123 39z"></glyph><glyph glyph-name="quotesingle" unicode="۵" d="M569 37q0 -68 -49.5 -111t-118.5 -44q-67 -1 -114 34q-58 -34 -116 -36q-68 -1 -109 51q-38 47 -38 117q0 111 86 218l96 119l-34 23l56 68q341 -255 341 -439zM476 55q0 35 -24 79.5t-67 92.5q-46 50 -113 105q-156 -160 -156 -272q0 -37 19 -60.5t52 -23.5q37 0 55 29 q15 18 17 50l-5 33h87l5 -15l1 -19l-1 -33q0 -7 -8 -27q25 -16 57 -16q61 0 77 48q4 11 4 29z"></glyph><glyph glyph-name="parenleft" unicode="٥" d="M569 37q0 -68 -49.5 -111t-118.5 -44q-67 -1 -114 34q-58 -34 -116 -36q-68 -1 -109 51q-38 47 -38 117q0 111 86 218l96 119l-34 23l56 68q341 -255 341 -439zM476 55q0 35 -24 79.5t-67 92.5q-46 50 -113 105q-156 -160 -156 -272q0 -37 19 -60.5t52 -23.5q37 0 55 29 q15 18 17 50l-5 33h87l5 -15l1 -19l-1 -33q0 -7 -8 -27q25 -16 57 -16q61 0 77 48q4 11 4 29z"></glyph><glyph glyph-name="parenright" unicode="۶" d="M476 237q-35 -31 -69 -72l-74 -91q-12 -14 -66 -95q-29 -42 -62 -100l-77 48q20 40 59 99q27 40 101 136q-83 0 -130 48q-41 44 -41 109q0 83 70 138q37 23 82 23q54 0 114 -31l-28 -79q-39 22 -72 22q-40 0 -68 -37q-10 -20 -10 -36t8 -34q17 -38 69 -38q27 0 57 11 q25 5 66 31z"></glyph><glyph glyph-name="asterisk" unicode="٦" d="M476 237q-35 -31 -69 -72l-74 -91q-12 -14 -66 -95q-29 -42 -62 -100l-77 48q20 40 59 99q27 40 101 136q-83 0 -130 48q-41 44 -41 109q0 83 70 138q37 23 82 23q54 0 114 -31l-28 -79q-39 22 -72 22q-40 0 -68 -37q-10 -20 -10 -36t8 -34q17 -38 69 -38q27 0 57 11 q25 5 66 31z"></glyph><glyph glyph-name="plus" unicode="٧" d="M543 437q-55 -96 -71 -125q-40 -72 -65 -129q-36 -85 -77 -282h-70q-20 154 -74 282q-16 38 -54 108q-14 26 -38 68q-12 24 -43 77l77 40q37 -61 65 -118q35 -73 49 -109l50 -185l11 -2l11 59l16 54l23 73l17 45q10 24 27 55l71 128z"></glyph><glyph glyph-name="comma" unicode="٨" d="M543 -55l-39 -19l-37 -20q-25 42 -69 122q-20 39 -45 104q-6 22 -50 187h-11q-27 -128 -50 -185l-14 -35q-28 -71 -101 -193l-38 20l-40 19q61 103 84 145q37 67 53 109l23 60l21 68q18 59 33 153l68 -1q18 -104 32 -154q19 -64 45 -127l21 -50l64 -121z"></glyph><glyph glyph-name="hyphen" unicode="٩" d="M458 -99h-88v302l-51 -13l-46 -4q-62 0 -98.5 34t-37.5 94q-1 91 67 139q17 13 38.5 20t43.5 7q21 0 45 -5q19 -7 48 -23q37 -20 61 -104q1 -13 7 -39q2 -13 5 -36q1 -13 5 -42q1 -17 1 -42v-288zM362 293q-2 14 -5 36q-2 9 -9 30q-8 25 -35 37l-28 6q-41 0 -61 -36 q-13 -24 -13 -41v-11q0 -6 5 -15q14 -36 56 -36q36 0 90 30z"></glyph><glyph glyph-name="period" unicode="ـ" d="M242 0h-263v89h263v-89z"></glyph><glyph glyph-name="slash" unicode="ء" d="M231 94l-185 -94l-15 29l63 35q-54 29 -55 83q-1 38 25 64.5t64 26.5q7 1 26 -1q6 -1 24 -10l-13 -28q-16 10 -37 10q-58 0 -58 -62q0 -53 51 -53q35 0 93 32z"></glyph><glyph glyph-name="zero" unicode="ا" d="M183 0h-85v564h85v-564z"></glyph><glyph glyph-name="one" unicode="︀" d="M249 0q-109 0 -157 43q-30 27 -30 92v417h88v-379q0 -59 17 -74q11 -9 82 -10v-89z"></glyph><glyph glyph-name="two" unicode="آ" d="M331 613h-221l-52 -4q-13 -1 -30 -10q-17 -20 -29 -48l-81 30q35 77 76 101q27 15 89 17q79 1 145 1h103v-87zM210 0h-85v564h85v-564z"></glyph><glyph glyph-name="three" unicode="︁" d="M356 616h-221l-52 -4q-21 -5 -29 -11q-17 -17 -30 -48l-81 31l23 46q17 30 31 41.5t46 20.5q20 5 64 8q31 1 146 1h103v-85zM296 0q-147 0 -178 73q-10 25 -10 62v417h88v-379q0 -58 15 -73q17 -10 85 -11v-89z"></glyph><glyph glyph-name="four" unicode="أ" d="M183 0h-85v564h85v-564zM105 634l-149 -75l-12 24l50 27q-45 24 -45 64q0 46 45 70q13 7 27 7q16 -4 41 -12l-10 -23q-5 1 -14 4t-14 4q-18 0 -34 -14q-14 -22 -14 -36q0 -39 40 -40q15 0 32 8q14 2 44 18z"></glyph><glyph glyph-name="five" unicode="︃" d="M105 634l-149 -75l-12 24l50 27q-45 24 -45 64q0 46 45 70q13 7 27 7q16 -4 41 -12l-10 -23q-5 1 -14 4t-14 4q-18 0 -34 -14q-14 -22 -14 -36q0 -39 40 -40q15 0 32 8q14 2 44 18zM266 0q-112 0 -158 43q-30 34 -30 92v417h88v-379q0 -60 16 -73q13 -10 84 -11v-89z"></glyph><glyph glyph-name="six" unicode="إ" d="M183 0h-85v564h85v-564zM231 -146l-149 -75l-12 24l50 27q-45 25 -45 64q0 46 45 70q13 7 27 7q16 -3 41 -11l-10 -23q-5 1 -14 4t-14 4q-18 0 -34 -15q-14 -22 -14 -36q0 -38 40 -39q15 -1 32 7q14 3 43 18z"></glyph><glyph glyph-name="seven" unicode="︅" d="M249 0q-109 0 -157 43q-30 27 -30 92v417h88v-379q0 -59 17 -74q11 -9 82 -10v-89zM231 -146l-149 -75l-12 24l50 27q-45 25 -45 64q0 46 45 70q13 7 27 7q16 -3 41 -11l-10 -23q-5 1 -14 4t-14 4q-18 0 -34 -15q-14 -22 -14 -36q0 -38 40 -39q15 -1 32 7q14 3 43 18z "></glyph><glyph glyph-name="eight" unicode="︆" d="M183 0h-85v564h85v-564z"></glyph><glyph glyph-name="nine" unicode="︇" d="M249 0q-109 0 -157 43q-30 27 -30 92v417h88v-379q0 -59 17 -74q11 -9 82 -10v-89z"></glyph><glyph glyph-name="colon" unicode="ٱ" d="M183 0h-85v564h85v-564z"></glyph><glyph glyph-name="semicolon" unicode="︈" d="M249 0q-109 0 -157 43q-30 27 -30 92v417h88v-379q0 -59 17 -74q11 -9 82 -10v-89z"></glyph><glyph glyph-name="less" unicode="ب" d="M755 143q0 -52 -38 -97.5t-90 -45.5h-465q-53 0 -91 46q-36 43 -36 97v133h88v-120q0 -40 13 -53.5t53 -13.5h411q43 0 58 20q7 10 7 47v120h90v-133zM479 -159q0 -40 -39 -58q-9 -5 -26 -5q-23 0 -44 18q-11 10 -13 20q-5 9 -5 25q0 51 62 51q65 0 65 -51z"></glyph><glyph glyph-name="equal" unicode="︉" d="M855 0l-56 2l-38 6q-28 10 -46 26q-23 -16 -43.5 -25t-41.5 -9h-465q-52 0 -88.5 44t-36.5 99v133h88v-120q0 -16 2 -30q7 -37 64 -37h410q36 0 46 9q19 15 19 58v120h89v-120q0 -32 15 -47q16 -20 82 -20v-89zM459 -164q0 -25 -18 -42q-21 -18 -46 -18q-27 0 -45 16.5 t-18 43.5q0 53 63 54q64 1 64 -54z"></glyph><glyph glyph-name="greater" unicode="︊" d="M362 0h-28q-29 0 -38 1q-16 0 -21 5q-28 4 -54 28q-23 -16 -43.5 -25t-41.5 -9h-145v89h117q44 0 57 20q2 6 7 19q1 20 1 28v120h91v-120q0 -36 21 -53q15 -8 34 -11q15 -3 43 -3v-89zM198 -159q0 -28 -20 -44q-8 -8 -18.5 -13t-25.5 -5q-28 0 -45.5 17t-17.5 45 q0 51 63 52q64 0 64 -52z"></glyph><glyph glyph-name="question" unicode="︋" d="M255 143q0 -27 -9 -51.5t-30 -48.5q-37 -43 -89 -43h-145v89h117q45 0 58 20q2 5 5 18q3 9 3 29v120h90v-133zM156 -165q0 -25 -19 -44q-23 -16 -45 -16q-29 0 -47 16q-17 20 -17 44q0 53 64 54t64 -54z"></glyph><glyph glyph-name="at" unicode="پ" d="M755 143q0 -52 -38 -97.5t-90 -45.5h-465q-53 0 -91 46q-36 43 -36 97v133h88v-120q0 -40 13 -53.5t53 -13.5h411q43 0 58 20q7 10 7 47v120h90v-133zM554 -167q0 -47 -59 -48q-58 0 -59 48q-1 20 16 39q19 13 43 13q10 0 21 -3.5t20 -9.5q18 -19 18 -39zM385 -167 q0 -47 -59 -48q-59 0 -59 48q0 20 16 39q20 13 43 13q22 0 42 -13q13 -18 16 -30q1 -4 1 -9zM466 -292q0 -49 -59 -49t-59 49q0 22 16 38q2 1 19 12q26 3 24 3q24 0 41 -15q10 -10 11 -19q7 -11 7 -19z"></glyph><glyph glyph-name="A" unicode="︌" d="M855 0l-56 2l-38 6q-28 10 -46 26q-23 -16 -43.5 -25t-41.5 -9h-465q-52 0 -88.5 44t-36.5 99v133h88v-120q0 -16 2 -30q7 -37 64 -37h410q36 0 46 9q19 15 19 58v120h89v-120q0 -32 15 -47q16 -20 82 -20v-89zM558 -154q0 -46 -61 -46q-56 0 -56 46q0 23 17 39 q13 16 39 16q24 0 43 -16q5 -6 11.5 -17.5t6.5 -21.5zM388 -154q0 -46 -59 -46q-56 0 -57 46q-1 24 16 39.5t41 15.5t41 -16q10 -11 14 -19t4 -20zM469 -277q0 -48 -59 -49q-58 0 -58 49q0 11 4 19q2 4 13 19q7 7 18 11q5 2 23 4q24 0 41 -15q5 -5 12 -20q6 -8 6 -18z"></glyph><glyph glyph-name="B" unicode="︍" d="M380 0l-53 1l-27 4l-21 11l-24 18q-17 -13 -41.5 -23.5t-41.5 -10.5h-190v89h162q44 0 58 20q2 5 7 18v12.5v16.5v120h88v-120q0 -40 15 -55q19 -12 68 -12v-89zM319 -154q0 -47 -60 -47q-59 0 -59 47q0 23 17.5 39t41.5 16q23 0 41 -16q5 -6 12 -18t7 -21zM149 -154 q0 -47 -59 -47t-59 47q0 33 36 51q9 4 23 4q24 0 41 -16q5 -5 12 -19q6 -10 6 -20zM230 -277q0 -49 -58 -49q-60 0 -61 49q-1 23 15 37.5t46 15.5q22 0 39 -15q6 -6 14 -20q5 -9 5 -18z"></glyph><glyph glyph-name="C" unicode="︎" d="M304 143q0 -56 -34 -98q-37 -45 -92 -45h-188v89h160q45 0 59 20q1 5 5 18q0 8 2 29v120h88v-133zM319 -154q0 -47 -60 -47q-59 0 -59 47q0 23 17.5 39t41.5 16q23 0 41 -16q5 -6 12 -18t7 -21zM149 -154q0 -47 -59 -47t-59 47q0 33 36 51q9 4 23 4q24 0 41 -16 q5 -5 12 -19q6 -10 6 -20zM230 -277q0 -49 -58 -49q-60 0 -61 49q-1 23 15 37.5t46 15.5q22 0 39 -15q6 -6 14 -20q5 -9 5 -18z"></glyph><glyph glyph-name="D" unicode="ت" d="M521 424q0 -24 -17.5 -39t-41.5 -15q-21 0 -39.5 16.5t-18.5 37.5q0 46 58 47q59 0 59 -47zM352 424q0 -24 -17.5 -39t-41.5 -15q-21 0 -41 15q-16 18 -16 39q0 46 57 47q59 0 59 -47zM755 143q0 -52 -38 -97.5t-90 -45.5h-465q-53 0 -91 46q-36 43 -36 97v133h88v-120 q0 -40 13 -53.5t53 -13.5h411q43 0 58 20q7 10 7 47v120h90v-133z"></glyph><glyph glyph-name="E" unicode="️" d="M545 424q0 -23 -17.5 -38t-40.5 -15q-24 0 -43 15q-14 11 -18 38q0 49 61 49q58 0 58 -49zM376 424q0 -22 -17.5 -37.5t-42.5 -15.5q-23 0 -40.5 15t-17.5 38q0 49 58 49q60 0 60 -49zM855 0l-56 2l-38 6q-28 10 -46 26q-23 -16 -43.5 -25t-41.5 -9h-465q-52 0 -88.5 44 t-36.5 99v133h88v-120q0 -16 2 -30q7 -37 64 -37h410q36 0 46 9q19 15 19 58v120h89v-120q0 -32 15 -47q16 -20 82 -20v-89z"></glyph><glyph glyph-name="F" unicode="︐" d="M311 423q0 -22 -17.5 -37.5t-40.5 -15.5q-21 0 -43 15q-16 19 -16 38q0 48 59 48q58 0 58 -48zM143 423q0 -23 -18 -38t-41 -15q-24 0 -41 15t-17 38q0 48 58 48q59 0 59 -48zM380 0l-53 1l-27 4l-21 11l-24 18q-17 -13 -41.5 -23.5t-41.5 -10.5h-190v89h162q44 0 58 20 q2 5 7 18v12.5v16.5v120h88v-120q0 -40 15 -55q19 -12 68 -12v-89z"></glyph><glyph glyph-name="G" unicode="︑" d="M297 420q0 -47 -58 -54q-18 0 -41 14q-18 18 -18 40q0 48 59 48q58 0 58 -48zM128 420q0 -24 -16 -39t-41 -15q-22 0 -43 14q-15 20 -17 40q0 48 60 48q57 0 57 -48zM297 143q0 -54 -37 -98.5t-88 -44.5h-190v89h161q59 0 63 38q3 9 3 29v120h88v-133z"></glyph><glyph glyph-name="H" unicode="ث" d="M442 517q0 -23 -19 -38.5t-41 -15.5q-25 0 -41.5 16t-16.5 38q0 47 58 47q59 0 60 -47zM527 392q0 -23 -18 -37q-13 -13 -41 -16q-23 0 -42 14q-9 12 -12 18q-4 14 -5 21q0 49 59 49t59 -49zM358 392q0 -21 -15.5 -35.5t-43.5 -17.5q-25 0 -40 14q-18 20 -18 39 q-1 49 58 49t59 -49zM755 143q0 -52 -38 -97.5t-90 -45.5h-465q-53 0 -91 46q-36 43 -36 97v133h88v-120q0 -40 13 -53.5t53 -13.5h411q43 0 58 20q7 10 7 47v120h90v-133z"></glyph><glyph glyph-name="I" unicode="︒" d="M457 517q0 -22 -19.5 -38t-41.5 -16q-21 0 -39.5 16t-18.5 38q-1 47 58 47q61 0 61 -47zM542 392q0 -21 -18 -37q-13 -13 -43 -16q-24 0 -39 14q-9 8 -13 18q-5 7 -5 21q0 49 57 49q61 0 61 -49zM371 392q0 -22 -15 -36t-43 -17q-25 0 -40 14q-3 2 -14 18q-4 10 -4 21 q0 49 58 49t58 -49zM855 0l-56 2l-38 6q-28 10 -46 26q-23 -16 -43.5 -25t-41.5 -9h-465q-52 0 -88.5 44t-36.5 99v133h88v-120q0 -16 2 -30q7 -37 64 -37h410q36 0 46 9q19 15 19 58v120h89v-120q0 -32 15 -47q16 -20 82 -20v-89z"></glyph><glyph glyph-name="J" unicode="︓" d="M220 517q0 -22 -18.5 -38.5t-42.5 -16.5q-21 0 -40 16.5t-19 38.5q0 47 59 47q61 0 61 -47zM305 392q1 -22 -16.5 -37.5t-42.5 -16.5q-24 -1 -42 15q-5 6 -12 18q-5 8 -5 21q0 49 59 49q58 0 59 -49zM136 392q0 -24 -17.5 -38.5t-41.5 -15.5q-12 -1 -22 3q-6 1 -20 12 q-6 6 -11.5 19t-5.5 20q0 49 59 49t59 -49zM380 0l-53 1l-27 4l-21 11l-24 18q-17 -13 -41.5 -23.5t-41.5 -10.5h-190v89h162q44 0 58 20q2 5 7 18v12.5v16.5v120h88v-120q0 -40 15 -55q19 -12 68 -12v-89z"></glyph><glyph glyph-name="K" unicode="︔" d="M220 517q0 -22 -18.5 -38.5t-42.5 -16.5q-21 0 -40 16.5t-19 38.5q0 47 59 47q61 0 61 -47zM305 392q1 -22 -16.5 -37.5t-42.5 -16.5q-24 -1 -42 15q-5 6 -12 18q-5 8 -5 21q0 49 59 49q58 0 59 -49zM136 392q0 -24 -17.5 -38.5t-41.5 -15.5q-12 -1 -22 3q-6 1 -20 12 q-6 6 -11.5 19t-5.5 20q0 49 59 49t59 -49zM297 143q0 -54 -37 -98.5t-88 -44.5h-190v89h161q59 0 63 38q3 9 3 29v120h88v-133z"></glyph><glyph glyph-name="L" unicode="ج" d="M553 -425h-242q-127 0 -213 87q-77 77 -77 189q0 145 129 216l270 149q-12 23 -25.5 33t-35.5 10q-39 7 -232 7l-11 86h213q181 0 184 -181l-290 -163q-118 -66 -118 -164q0 -38 15 -66q10 -27 44 -60q58 -57 124 -57h257zM399 -165q0 -27 -19 -44q-11 -10 -20 -13.5 t-24 -3.5q-64 0 -64 61q0 53 64 54q62 1 63 -54z"></glyph><glyph glyph-name="M" unicode="︕" d="M562 0q-67 0 -108 18q-32 20 -44 44l-12 42l-172 -96q-118 -66 -118 -164q0 -70 57 -126.5t127 -56.5h256l9 -86h-243q-128 0 -214 87q-75 77 -75 189q0 144 129 216l270 149q-24 37 -61 43q-48 7 -233 7l-10 86h212q179 0 185 -181l-81 -46q9 -22 42 -32q15 -4 58 -4h26 v-89zM403 -159q0 -27 -18 -45q-27 -18 -46 -18q-42 0 -60 38q-4 8 -4 25q0 51 64 51t64 -51z"></glyph><glyph glyph-name="N" unicode="︖" d="M518 0q-62 0 -103 18q-23 9 -35 39l-10 47q-124 -72 -178 -89q-5 -2 -16.5 -4.5t-19.5 -4.5l-46 -2l-131 -4v89q113 0 143 4q45 7 99 28q24 12 71 37q33 20 100 57q-19 38 -49.5 44t-84.5 6l-155 1l-12 86h218q177 0 179 -181l-81 -45q0 -37 111 -37v-89zM293 -164 q0 -24 -18 -45q-23 -16 -45 -16q-65 0 -65 61q0 53 65 53q63 0 63 -53z"></glyph><glyph glyph-name="O" unicode="︗" d="M488 171l-202 -116q-61 -34 -124 -46q-47 -9 -183 -9v89q113 0 143 4q45 7 99 28q24 12 71 37q33 20 100 57q-19 38 -49.5 44t-84.5 6l-155 1l-12 86h218q177 0 179 -181zM172 -158q0 -24 -19 -44q-8 -6 -22 -13q-7 -5 -24 -5q-27 0 -46 18q-9 9 -12.5 18t-5.5 26 q0 52 64 53q64 2 65 -53z"></glyph><glyph glyph-name="P" unicode="چ" d="M498 -109q0 -47 -58 -47q-60 0 -60 47q0 34 37 51q11 3 23 3q23 0 40.5 -16t17.5 -38zM551 -425h-242q-129 0 -215 87q-76 77 -76 189q0 144 130 216l269 149q-12 24 -26 33.5t-33 9.5q-41 7 -233 7l-11 86h212q180 0 185 -181l-290 -163q-118 -66 -118 -164 q0 -71 59.5 -127t123.5 -56h257zM329 -109q0 -47 -60 -47q-59 0 -59 47q0 34 37 51q10 3 22 3q23 0 40.5 -15.5t19.5 -38.5zM408 -233q0 -48 -59 -49q-57 0 -58 49q0 21 14 39q8 6 20 11q9 3 24 3q12 0 20 -3t21 -11q18 -18 18 -39z"></glyph><glyph glyph-name="Q" unicode="︘" d="M495 -109q0 -47 -59 -47t-59 47q0 32 37 51q10 3 22 3q23 0 41 -15.5t18 -38.5zM568 0q-68 0 -109 18q-31 19 -44 44l-11 42l-173 -96q-117 -66 -117 -164q0 -68 57.5 -125.5t125.5 -57.5h257l7 -86h-241q-128 0 -214 87q-77 79 -77 189q0 144 129 216l271 149 q-24 37 -60 43q-48 7 -233 7l-11 86h213q136 0 172 -104q13 -38 13 -77l-81 -46q8 -22 42 -32q4 -1 20 -2q20 -2 38 -2h26v-89zM326 -109q0 -47 -60 -47q-57 0 -57 47q0 33 35 51q9 3 22 3q22 0 40.5 -15.5t19.5 -38.5zM405 -233q0 -48 -58 -49q-60 0 -60 49q0 21 16 39 q5 4 19 11q8 3 25 3q9 0 21 -3q7 -3 18 -11q19 -19 19 -39z"></glyph><glyph glyph-name="R" unicode="︙" d="M518 0q-62 0 -103 18q-23 9 -35 39l-10 47q-124 -72 -178 -89q-5 -2 -16.5 -4.5t-19.5 -4.5l-46 -2l-131 -4v89q113 0 143 4q45 7 99 28q24 12 71 37q33 20 100 57q-19 38 -49.5 44t-84.5 6l-155 1l-12 86h218q177 0 179 -181l-81 -45q0 -37 111 -37v-89zM390 -154 q0 -47 -60 -47q-58 0 -58 47q0 24 16 39q4 4 21 11q8 4 21 4q24 0 41 -15q6 -6 14 -19q5 -9 5 -20zM221 -154q0 -47 -60 -47q-58 0 -58 47q0 23 17 39q6 5 19 11q8 4 22 4q22 0 42 -15q10 -11 14 -18t4 -21zM302 -277q0 -49 -60 -49q-59 0 -59 49q0 28 23 43q14 8 36 9 q24 0 41 -14q5 -6 14 -20q5 -11 5 -18z"></glyph><glyph glyph-name="S" unicode="︚" d="M488 171l-202 -116q-61 -34 -124 -46q-47 -9 -183 -9v89q113 0 143 4q45 7 99 28q24 12 71 37q33 20 100 57q-19 38 -49.5 44t-84.5 6l-155 1l-12 86h218q177 0 179 -181zM388 -154q0 -46 -59 -46t-59 46q0 23 17.5 39t41.5 16t41 -16q10 -11 14 -19t4 -20zM220 -154 q0 -46 -61 -46q-58 0 -58 46q0 22 18 38.5t40 16.5q26 0 43 -16q6 -5 13 -19q5 -6 5 -20zM300 -277q0 -48 -58 -49q-60 0 -60 49q0 51 60 53q24 0 40 -15q5 -7 14 -20q4 -8 4 -18z"></glyph><glyph glyph-name="T" unicode="ح" d="M554 -425h-242q-139 0 -224 99q-66 78 -66 172v19l3 19q17 123 125 183l272 149q-18 33 -79 46q-45 9 -119 7q-170 -3 -96 -3l-11 86h213q88 0 136 -47t48 -134l-290 -163q-118 -66 -118 -164q0 -71 58.5 -127t124.5 -56h257z"></glyph><glyph glyph-name="U" unicode="︛" d="M563 0q-79 0 -120 24q-21 13 -31 38l-13 42l-172 -96q-118 -66 -118 -164q0 -36 14 -66q17 -35 44 -60q61 -57 125 -57h258l8 -86h-243q-140 0 -224 99q-65 77 -65 172v19l1 19q12 119 128 183l271 149q-18 33 -79 46q-46 9 -119 7q-171 -3 -96 -3l-11 86h212 q88 0 136 -46.5t48 -134.5l-80 -46q4 -23 35.5 -29.5t90.5 -6.5v-89z"></glyph><glyph glyph-name="V" unicode="︜" d="M518 0q-68 0 -103 18q-18 9 -35 39l-10 47q-22 -15 -51 -31q-19 -10 -54 -28q-27 -11 -73 -29q-68 -16 -213 -16v89h70q32 0 43 1q18 1 26 3q66 9 103 28q14 4 88 46l83 48q-11 33 -60 45q-22 2 -80 5q-25 1 -149 1l-12 86h218q85 0 132 -47q44 -36 47 -136l-81 -44 q0 -35 111 -36v-89z"></glyph><glyph glyph-name="W" unicode="︝" d="M488 171l-202 -116q-62 -35 -125 -46q-49 -9 -182 -9v89h70q32 0 43 1q18 1 26 3q66 9 103 28q14 4 88 46l83 48q-11 33 -60 45q-22 2 -80 5q-25 1 -149 1l-12 86h218q177 0 179 -181z"></glyph><glyph glyph-name="X" unicode="خ" d="M370 512q1 -27 -20 -44t-43 -17q-27 -1 -48 17q-17 20 -17 44q0 51 65 51q63 0 63 -51zM553 -425h-242q-127 0 -213 87q-77 77 -77 189q0 145 129 216l270 149q-12 23 -25.5 33t-35.5 10q-39 7 -232 7l-11 86h213q181 0 184 -181l-290 -163q-118 -66 -118 -164 q0 -38 15 -66q10 -27 44 -60q58 -57 124 -57h257z"></glyph><glyph glyph-name="Y" unicode="︞" d="M362 512q0 -26 -19 -43.5t-46 -17.5t-45.5 18.5t-18.5 42.5q0 52 64 52q65 0 65 -52zM562 0q-67 0 -108 18q-32 20 -44 44l-12 42l-172 -96q-118 -66 -118 -164q0 -70 57 -126.5t127 -56.5h256l9 -86h-243q-128 0 -214 87q-75 77 -75 189q0 144 129 216l270 149 q-24 37 -61 43q-48 7 -233 7l-10 86h212q179 0 185 -181l-81 -46q9 -22 42 -32q15 -4 58 -4h26v-89z"></glyph><glyph glyph-name="Z" unicode="︟" d="M297 524q0 -28 -20.5 -45t-43.5 -17q-27 0 -46 18q-15 18 -15 44q0 52 61 52q64 0 64 -52zM518 0q-62 0 -103 18q-23 9 -35 39l-10 47q-124 -72 -178 -89q-5 -2 -16.5 -4.5t-19.5 -4.5l-46 -2l-131 -4v89q113 0 143 4q45 7 99 28q24 12 71 37q33 20 100 57 q-19 38 -49.5 44t-84.5 6l-155 1l-12 86h218q177 0 179 -181l-81 -45q0 -37 111 -37v-89z"></glyph><glyph glyph-name="bracketleft" unicode="︠" d="M319 510q0 -25 -20 -43t-45 -18q-30 0 -47 17t-17 44q0 52 64 52q65 1 65 -52zM488 171l-202 -116q-61 -34 -124 -46q-47 -9 -183 -9v89q113 0 143 4q45 7 99 28q24 12 71 37q33 20 100 57q-19 38 -49.5 44t-84.5 6l-155 1l-12 86h218q177 0 179 -181z"></glyph><glyph glyph-name="backslash" unicode="د" d="M462 118q0 -25 -8 -47t-28 -37q-34 -34 -94 -34h-274l-12 89h280q50 0 50 33q0 8 -14 33l-198 210l59 60l199 -210q16 -17 29 -48q4 -8 7.5 -23.5t3.5 -25.5z"></glyph><glyph glyph-name="bracketright" unicode="︡" d="M600 0h-40q-49 0 -112 61q-11 -15 -36 -43q-30 -18 -81 -18h-274l-12 89h281q49 0 49 32q0 18 -15 34l-198 210l60 60l265 -281q37 -39 57 -50q13 -5 56 -5v-89z"></glyph><glyph glyph-name="asciicircum" unicode="ذ" d="M289 573q0 -26 -19 -44t-45 -18q-29 0 -46.5 19t-17.5 43q0 52 64 52t64 -52zM461 118q0 -54 -37.5 -86t-92.5 -32h-274l-12 89h281q49 0 49 33q0 17 -15 33l-198 210l60 60l199 -210q35 -37 40 -97z"></glyph><glyph glyph-name="underscore" unicode="︢" d="M232 527q1 -27 -21 -43q-18 -17 -42 -17q-29 0 -46.5 17t-17.5 43q0 52 64 53q62 1 63 -53zM599 0h-40q-49 0 -111 61q-14 -23 -36 -43q-30 -18 -81 -18h-275l-12 89h281q49 0 49 32q0 18 -15 34l-198 210l60 60l265 -281q39 -41 58 -51q10 -3 55 -4v-89z"></glyph><glyph glyph-name="grave" unicode="ر" d="M375 16q0 -93 -64.5 -166t-156.5 -73h-117l-15 91h99q65 0 110 31q52 34 52 95v282h92v-260z"></glyph><glyph glyph-name="a" unicode="︣" d="M463 0q-64 0 -94 42q0 -125 -70 -200q-59 -65 -154 -65h-112l-15 88h121q55 0 97.5 37.5t42.5 91.5v282h89v-126q0 -60 95 -61v-89z"></glyph><glyph glyph-name="b" unicode="ز" d="M355 517q1 -52 -64 -63q-32 0 -49 19q-15 16 -16 44q-1 52 65 52q62 0 64 -52zM374 16q0 -93 -64.5 -166t-156.5 -73h-118l-14 91h100q114 0 152 80q9 21 9 46v282h92v-260z"></glyph><glyph glyph-name="c" unicode="︤" d="M355 512q0 -26 -21.5 -43.5t-42.5 -17.5q-28 -1 -49 17q-15 18 -16 44q-1 51 65 51q62 0 64 -51zM463 0q-64 0 -94 42q0 -127 -70 -200q-61 -65 -154 -65h-112l-15 88h121q52 0 96 41t44 88v282h89v-126q0 -60 95 -61v-89z"></glyph><glyph glyph-name="d" unicode="ژ" d="M313 517q0 -24 -18 -39.5t-41 -15.5q-22 0 -43 16q-13 15 -16 28q-1 4 -1 11q0 46 60 46q25 0 40 -11q19 -12 19 -35zM398 392q0 -23 -17.5 -38t-41.5 -16t-42 15q-5 6 -14 18q-4 12 -4 21q0 47 60 48q58 1 59 -48zM227 392q0 -52 -58 -54q-12 0 -20.5 2t-21.5 13 q-8 9 -12 17t-6 22q0 47 60 48q58 1 58 -48zM376 16q0 -93 -65 -166t-156 -73h-117l-14 91h98q116 0 153 80q10 21 10 46v282h91v-260z"></glyph><glyph glyph-name="e" unicode="︥" d="M305 518q1 -22 -17 -37.5t-42 -15.5q-13 0 -21.5 2.5t-19.5 12.5q-18 18 -18 38q0 49 59 49q58 0 59 -49zM392 393q0 -23 -18 -37.5t-42 -14.5q-33 -1 -55 34l-2 18q0 48 57 49q60 0 60 -49zM222 393q0 -20 -18 -36t-40 -16q-22 -1 -42 15q-5 6 -13 19q-1 6 -4 18 q0 48 59 49q58 0 58 -49zM463 0q-64 0 -94 42q0 -127 -70 -200q-61 -65 -154 -65h-112l-15 88h121q52 0 96 41t44 88v282h89v-126q0 -60 95 -61v-89z"></glyph><glyph glyph-name="f" unicode="س" d="M1060 142q0 -62 -29 -103q-33 -48 -92 -48q-57 0 -123 60q-41 -59 -105 -60q-50 0 -99 35q0 -104 -63.5 -176.5t-155.5 -72.5h-134q-87 0 -152 67.5t-65 161.5v183h86v-188q0 -59 41 -97.5t100 -38.5h116q58 0 98.5 39t40.5 97v275h88v-131q0 -30 29 -53q4 -5 21 -13 q9 -4 26 -4q60 0 60 55v146h87v-129q0 -28 27 -55q25 -17 49 -17q61 0 61 55v146h88v-134z"></glyph><glyph glyph-name="g" unicode="︦" d="M1143 0l-38 1h-14q-5 1 -12 5q-34 5 -58 42q-39 -56 -110 -57q-65 0 -117 60q-46 -62 -108 -62q-50 0 -91 37q0 -99 -59 -171q-63 -78 -160 -78h-137q-86 0 -151.5 67.5t-65.5 161.5v183h88v-188q0 -58 41 -97t99 -39h115q63 0 100 40q21 19 31.5 42t10.5 54v275h88v-131 q0 -29 23 -49.5t52 -20.5q59 0 59 55v146h89v-129q0 -27 27 -55q8 -5 22 -13q11 -4 26 -4q61 0 61 55v146h87v-134q0 -27 32 -47l29 -4l41 -2v-89z"></glyph><glyph glyph-name="h" unicode="︧" d="M778 0l-37 1h-16q-6 2 -11 5q-36 7 -56 42q-41 -57 -101 -58q-61 0 -122 58q-50 -58 -126 -58q-73 0 -120 62q-23 -33 -82 -45q-33 -7 -132 -7v89q903 0 78 -3q43 0 63 14q27 19 27 65v111h85v-131q0 -32 30 -53q23 -17 46 -17q60 0 60 55v146h87v-129q0 -33 29 -55 q26 -17 47 -17q62 0 62 55v146h86v-134q0 -27 33 -47l28 -4l42 -2v-89z"></glyph><glyph glyph-name="i" unicode="︨" d="M680 142q0 -74 -36 -114q-15 -16 -39 -28q-19 -10 -48 -10q-62 0 -122 59q-49 -58 -108 -58q-56 0 -118 70q-27 -25 -55 -45q-32 -16 -62 -16h-112v89h106q33 0 47.5 15t14.5 50v122h85v-129q0 -27 27 -55q26 -17 51 -17q59 0 59 55v146h88v-129q0 -33 28 -55 q26 -17 47 -17q62 0 62 55v146h85v-134z"></glyph><glyph glyph-name="j" unicode="ش" d="M844 517q0 -23 -19 -38.5t-42 -15.5q-22 0 -38.5 16.5t-19.5 37.5q0 47 58 47q61 0 61 -47zM928 392q1 -46 -58 -53q-26 0 -42 14q-5 6 -12 18q-6 7 -6 21q0 49 60 49q57 0 58 -49zM760 392q0 -21 -16.5 -35.5t-43.5 -17.5q-24 0 -40 14q-5 6 -14 18q-1 4 -4 21 q0 49 58 49q60 0 60 -49zM1060 142q0 -62 -29 -103q-33 -48 -92 -48q-63 0 -123 60q-48 -59 -105 -60q-41 0 -99 35q0 -109 -64.5 -179t-154.5 -70h-134q-90 0 -153.5 69t-63.5 160v183h86v-188q0 -56 41 -96t100 -40h116q57 0 98 39t41 97v275h88v-131q0 -30 28 -53 q11 -7 35 -16q5 -1 13 -1q60 0 60 55v146h87v-129q0 -32 27 -55q11 -6 27 -13q7 -4 22 -4q61 0 61 55v146h88v-134z"></glyph><glyph glyph-name="k" unicode="︩" d="M825 514q0 -22 -20 -37.5t-40 -15.5q-25 0 -42 15t-17 38q-1 48 59 48q24 0 42 -12.5t18 -35.5zM910 390q0 -20 -18 -38q-19 -14 -43 -15q-21 -1 -41 14q-5 6 -14 19q-4 8 -4 20q0 48 59 48q61 0 61 -48zM738 390q0 -24 -17.5 -38t-41.5 -15q-21 -1 -41 14q-5 6 -13 19 q-2 6 -5 20q0 48 59 48t59 -48zM1140 0h-30l-35 6q-35 7 -59 42q-38 -55 -109 -56q-67 -1 -116 60q-46 -62 -111 -62q-47 0 -89 36q0 -120 -78 -192q-61 -57 -139 -57h-137q-91 0 -156 70q-63 67 -63 159v183h89v-188q0 -42 23 -76.5t62 -49.5q24 -10 55 -10h115 q57 0 99 39.5t42 96.5v275h88v-131q0 -31 27 -53q29 -17 49 -17q60 0 60 55v146h88v-129q0 -32 28 -55q25 -17 47 -17q60 0 60 55v146h88v-134q0 -34 31 -47q12 -3 71 -6v-89z"></glyph><glyph glyph-name="l" unicode="︪" d="M437 542q0 -23 -18.5 -38.5t-41.5 -15.5q-27 0 -41 15q-17 17 -17 39q0 48 58 48q24 0 42 -13t18 -35zM523 417q0 -19 -19 -39q-17 -14 -42 -15q-22 0 -41 15q-10 11 -13 18.5t-5 20.5q0 46 59 48q61 1 61 -48zM351 417q0 -23 -17.5 -38t-41.5 -16q-23 0 -42 15 q-18 24 -18 39q0 46 60 48q59 1 59 -48zM778 0h-34l-31 6q-35 7 -57 42q-41 -56 -101 -57q-59 0 -121 60q-53 -59 -125 -60q-74 0 -120 63q-35 -40 -99 -50q-26 -4 -115 -4v89q-548 0 79 -3q43 0 63 14q26 18 26 65v111h85v-131q0 -31 28 -53q12 -7 35 -16q6 -1 13 -1 q60 0 60 55v146h87v-129q0 -35 28 -55q9 -4 27 -13q10 -4 21 -4q62 0 62 55v146h86v-134q0 -33 33 -47q10 -3 70 -6v-89z"></glyph><glyph glyph-name="m" unicode="︫" d="M458 517q0 -23 -19 -39t-42 -16q-22 0 -40 16t-18 39q0 46 58 46q61 0 61 -46zM543 392q0 -20 -18 -39q-16 -14 -41 -15q-24 -1 -41 15q-18 20 -18 39q-1 47 59 48q59 1 59 -48zM374 392q0 -24 -17.5 -38.5t-42.5 -15.5q-24 -1 -39 15q-7 6 -15 18q-4 14 -4 21 q0 47 58 48q60 1 60 -48zM680 142q0 -74 -37 -115q-32 -35 -85 -36q-70 -1 -122 60q-49 -59 -107 -59q-60 0 -120 70q-40 -39 -79 -54q-7 -2 -19 -7q-5 -1 -19 -1h-112v89h106q62 0 62 64v122l85 1v-129q0 -31 27 -55q26 -17 51 -17q59 0 59 55v146h88v-129q0 -35 27 -55 q39 -17 48 -17q62 0 62 55v146h85v-134z"></glyph><glyph glyph-name="n" unicode="ص" d="M1089 156q0 -65 -38.5 -110.5t-116.5 -45.5h-240q-71 0 -91 46q0 -115 -62.5 -192t-157.5 -77h-136q-89 0 -153.5 73t-64.5 166v173h89v-195q0 -47 45 -86.5t92 -39.5h122q50 0 93 41t43 85v282h91v-131q0 -55 82 -56q38 98 92 167q75 96 156 96q33 0 69 -20.5t62 -72.5 l17 -50q7 -18 7 -53zM1004 166q0 46 -32 89q-10 10 -22 10q-38 0 -89 -56q-30 -32 -46 -56q-19 -29 -37 -64h170q26 0 42 27q14 22 14 50z"></glyph><glyph glyph-name="o" unicode="︬" d="M1119 0h-401q-96 0 -118 46q0 -116 -52 -188q-59 -81 -170 -81h-136q-92 0 -151 70q-17 19 -46 77q-16 51 -16 92v173h87v-195q0 -51 41 -90t92 -39h125q50 0 97 46q40 39 40 83v282h88v-131q0 -55 84 -56q104 263 244 264q54 0 97 -39t53 -93q5 -24 5 -52q1 -32 -13 -80 h50v-89zM993 173q0 55 -28 82q-2 3 -9 4q-12 1 -17 5q-19 0 -41 -14q-15 -8 -45.5 -40.5t-78.5 -120.5h170q49 0 49 84z"></glyph><glyph glyph-name="p" unicode="︭" d="M778 0h-446q-91 0 -126 72q-52 -72 -118 -72h-108v89h98q62 0 62 65v122h87v-112q0 -74 85 -75q52 127 113.5 194.5t131.5 68.5q33 0 69 -20q84 -49 84 -161q0 -36 -14 -82h82v-89zM622 173q0 54 -27 82q-2 1 -9 4q-8 0 -18 5q-38 0 -88 -55q-19 -21 -40 -51 q-10 -14 -41 -69h173q50 0 50 84z"></glyph><glyph glyph-name="q" unicode="︮" d="M710 172q0 -41 -14 -86q-7 -23 -12 -33q-8 -16 -21 -27q-31 -26 -108 -26h-223q-91 0 -126 72q-52 -72 -118 -72h-108v89h98q62 0 62 65v122h87v-112q0 -74 85 -75q52 127 113.5 194.5t131.5 68.5q31 0 68 -20q85 -48 85 -160zM622 173q0 54 -27 82q-2 1 -9 4q-8 0 -18 5 q-38 0 -88 -55q-19 -21 -40 -51q-10 -14 -41 -69h173q50 0 50 84z"></glyph><glyph glyph-name="r" unicode="ض" d="M920 515q1 -23 -21 -44q-12 -12 -43 -17q-27 0 -45 17t-18 44q0 53 63 53q64 0 64 -53zM1089 156q0 -73 -41 -114.5t-114 -41.5h-240q-76 0 -91 46q0 -113 -63 -191t-157 -78h-136q-90 0 -154 72t-64 167v173h89v-195q0 -46 43.5 -86t93.5 -40h122q45 0 90.5 41t45.5 85 v282h91v-131q0 -55 84 -56q51 124 119 197q62 66 128 66q11 0 36 -5q68 -29 95 -88q22 -49 23 -103zM1005 166q0 51 -33 89q-16 10 -22 10q-36 0 -88 -55t-84 -121h171q9 0 23 3q24 12 29 44q4 11 4 30z"></glyph><glyph glyph-name="s" unicode="︰" d="M912 509q0 -26 -21 -43.5t-43 -17.5q-64 0 -64 61q0 52 64 52q64 1 64 -52zM1118 0h-401q-103 0 -118 46q0 -132 -64 -203q-60 -66 -158 -66h-135q-95 0 -156 73q-58 69 -58 166v173h87v-195q0 -48 43.5 -88.5t89.5 -40.5h123q56 0 97.5 45.5t41.5 83.5v282h88v-131 q0 -55 84 -56q109 263 244 264q31 0 70 -21q85 -47 85 -163q0 -40 -14 -80h51v-89zM992 173q0 61 -28 82q-4 3 -9.5 4.5l-16.5 4.5q-19 0 -40.5 -12.5t-46.5 -42.5q-3 -4 -8 -11q-3 -3 -10 -9q-3 -4 -10.5 -14.5t-14.5 -20.5l-14 -26q-14 -25 -21 -39h170q49 0 49 84z"></glyph><glyph glyph-name="t" unicode="︱" d="M503 524q0 -26 -19 -45q-24 -17 -44 -17q-31 0 -47.5 17.5t-16.5 44.5q0 52 64 52q63 1 63 -52zM778 0h-446q-88 0 -127 72q-51 -72 -119 -72h-106v89h98q62 0 62 64v122l87 1v-112q0 -74 86 -75q107 261 245 263q35 0 68 -20q82 -52 82 -161q0 -45 -13 -82h83v-89z M620 175q0 33 -6 50.5t-19 29.5q-4 3 -9.5 4.5t-17.5 4.5q-39 0 -88 -54q-9 -11 -44 -56q-11 -20 -21 -33l-16 -32h171q50 0 50 86z"></glyph><glyph glyph-name="u" unicode="︲" d="M502 521q0 -27 -20.5 -44.5t-44.5 -17.5q-28 0 -45 18t-17 44q0 53 62 53q65 0 65 -53zM710 172q0 -31 -15 -86q-11 -42 -32 -60q-30 -26 -108 -26h-223q-88 0 -127 72q-51 -72 -119 -72h-106v89h98q62 0 62 64v122l87 1v-112q0 -74 86 -75q107 261 245 263q33 0 68 -20 q84 -50 84 -160zM620 175q0 33 -6 50.5t-19 29.5q-4 3 -9.5 4.5t-17.5 4.5q-39 0 -88 -54q-9 -11 -44 -56q-11 -20 -21 -33l-16 -32h171q50 0 50 86z"></glyph><glyph glyph-name="v" unicode="ط" d="M487 161q0 -68 -36 -113q-39 -48 -105 -48h-306l-18 89h73v475h87v-314q82 101 152 102q29 0 65 -20q40 -23 63 -72q7 -15 18 -50q7 -19 7 -49zM396 175q1 56 -26 80q-3 2 -11 4q-11 1 -17 5q-42 0 -98 -69q-42 -51 -69 -106h171q16 0 39 27q10 22 11 59z"></glyph><glyph glyph-name="w" unicode="︳" d="M520 0h-482l-18 89h74v475h87v-314q82 101 153 102q27 0 65 -20q86 -47 86 -167v-12l-4 -23q0 -12 -8 -41h47v-89zM396 175q1 56 -26 80q-3 2 -11 4q-11 1 -17 5q-42 0 -98 -69q-42 -51 -69 -106h171q16 0 39 27q10 22 11 59z"></glyph><glyph glyph-name="x" unicode="︴" d="M474 0h-499v89h65v475h86v-314q81 101 153 102q27 0 64 -20q83 -46 83 -166q0 -51 -12 -77h60v-89zM341 175q0 54 -27 80q-2 1 -9 4q-8 0 -17 5q-36 0 -88 -55q-48 -52 -79 -120h170q16 0 38 27q12 23 12 59z"></glyph><glyph glyph-name="y" unicode="︵" d="M449 161q0 -69 -35 -113q-38 -48 -105 -48h-327v89h75v475h88v-312q81 100 151 100q8 0 31 -5q12 -5 36 -17q37 -18 61.5 -69t24.5 -100zM359 172q0 59 -28 83q-3 3 -10 4q-11 1 -17 5q-42 0 -99 -68q-44 -54 -68 -107h172q50 0 50 83z"></glyph><glyph glyph-name="z" unicode="ظ" d="M410 517q0 -28 -19.5 -45.5t-43.5 -17.5q-29 0 -47 17t-18 46q0 52 65 52q63 0 63 -52zM486 161q0 -23 -10 -62q-5 -15 -11 -26q-4 -7 -14 -24q-40 -49 -108 -49h-304l-18 89h73v475h87v-314q81 101 152 102q32 0 65 -20q42 -27 64.5 -73.5t23.5 -97.5zM395 175 q2 59 -26 80q-3 3 -9 4.5l-18 4.5q-60 0 -133 -114q-24 -36 -34 -61h168q50 0 52 86z"></glyph><glyph glyph-name="braceleft" unicode="︶" d="M407 515q0 -23 -22 -44q-20 -17 -43 -17q-29 0 -46 18t-17 43q0 53 63 53q65 0 65 -53zM520 0h-483l-17 89h74v475h87v-314q81 101 152 102q30 0 65 -20q86 -52 86 -168l-4 -41l-9 -34h49v-89zM395 175q2 59 -26 80q-3 3 -9 4.5l-18 4.5q-60 0 -133 -114q-24 -36 -34 -61 h168q50 0 52 86z"></glyph><glyph glyph-name="bar" unicode="︷" d="M369 524q0 -26 -19.5 -44.5t-45.5 -18.5q-29 0 -46 19t-17 44q0 52 63 52q64 0 65 -52zM474 0h-500l1 89h65v475h86v-314q80 101 151 102q33 0 65 -20q91 -59 84 -167l-3 -40l-9 -36h60v-89zM341 175q0 59 -28 80q-3 3 -26 9q-38 0 -88 -55q-53 -59 -79 -120h169 q22 0 37 24.5t15 61.5z"></glyph><glyph glyph-name="braceright" unicode="︸" d="M364 508q0 -28 -20.5 -45t-43.5 -17q-29 0 -47 17q-16 22 -16 45q0 52 63 52q64 0 64 -52zM449 161q0 -69 -35 -112q-39 -49 -105 -49h-327v89h75v475h88v-314q87 101 152 101q32 0 65 -19q44 -26 64 -73q13 -22 17 -48q6 -17 6 -50zM359 172q0 57 -28 82q-4 3 -27 9 q-20 0 -42 -13t-47 -41q-42 -47 -78 -121h172q50 0 50 84z"></glyph><glyph glyph-name="asciitilde" unicode="ع" d="M523 -425h-232q-117 0 -202 77t-85 193q0 79 43.5 143t141.5 106q-29 54 -30 104q-1 66 50 113q7 5 22 16q10 5 32 14q10 3 33 7q16 4 34 4q66 0 148 -66l-42 -67q-33 23 -66 36.5t-55 13.5q-48 0 -62 -47q-2 -9 -6 -20v-15q0 -54 38 -87q13 -11 35 -11h175l13 -89h-292 q-56 0 -90 -45t-34 -111q0 -68 47 -125.5t131 -57.5h240z"></glyph><glyph glyph-name="uniFE39" unicode="︹" d="M564 0q-100 0 -145 11q-64 16 -98 54q-212 -89 -212 -223q0 -67 60 -128q52 -53 119 -53h257l9 -86h-243q-117 0 -202 84q-41 40 -63 89q-8 16 -15 49q-5 22 -5 53q0 175 230 276l-117 115l30 53l30 58h187q111 0 125 -97q0 -16 -1 -25q-2 -19 -21 -55q-19 -28 -91 -70 q32 -15 166 -16v-89zM422 241q0 6 -5 12q-9 10 -39 14h-139l98 -102q83 45 85 76z"></glyph><glyph glyph-name="uniFE3A" unicode="︺" d="M422 0q-101 0 -122 9q-8 0 -42 17q-31 21 -52 38q-22 -21 -50.5 -35.5t-60.5 -22.5q-12 -2 -47 -5q-11 -1 -69 -1v89q67 0 99 6q37 7 56 26l-123 120l29 53l31 58h188q112 0 124 -97q0 -32 -5 -42q-4 -14 -16 -37q-20 -27 -86 -68q44 -18 146 -19v-89zM287 239q0 6 -5 14 q-4 4 -36 14h-140l96 -102q84 42 85 74z"></glyph><glyph glyph-name="uniFE3B" unicode="︻" d="M424 0h-444v89h126q-13 30 -20.5 59.5t-7.5 49.5q0 69 53 117q22 20 53 27l31 7l39 3q28 2 72 -16q16 -7 33 -21q9 -4 17 -12q6 -4 16 -16l-43 -68q-68 53 -118 53q-43 0 -64 -48l-5 -22v-15q0 -27 11 -52q21 -46 60 -46h176z"></glyph><glyph glyph-name="afii57434" unicode="غ" d="M405 514q0 -26 -20 -45q-23 -17 -44 -17q-29 0 -48 18q-17 22 -17 44q0 54 65 54q64 0 64 -54zM521 -425h-230q-66 0 -114 21q-59 26 -94 63q-79 82 -79 186q0 79 44 139q49 67 141 110q-30 56 -31 104q0 37 22 77q44 77 139 78q79 0 157 -67l-41 -67q-36 24 -67 37 t-53 13l-24 -4q-44 -19 -45 -75q0 -38 20 -72q24 -29 53 -29h176l12 -89h-292q-58 0 -93 -51q-30 -44 -30 -105q0 -72 43 -125q47 -58 134 -58h240z"></glyph><glyph glyph-name="uniFE3C" unicode="︼" d="M410 512q0 -26 -18.5 -43.5t-44.5 -17.5q-65 0 -65 61q0 51 65 51q63 0 63 -51zM567 89l-3 -89l-78 2l-52 6q-69 8 -114 57q-212 -94 -212 -223q0 -73 58 -125l15 -12t15 -14q4 -2 13 -7q6 -3 17 -10q32 -13 61 -13h258l9 -86h-243q-34 0 -58 5q-10 3 -27 7.5t-26 8.5 q-48 18 -92 63q-82 84 -82 191q0 119 105 205q50 40 125 71l-117 115l30 53l30 58h187q115 0 125 -97l-4 -45q-4 -18 -17 -35q-21 -28 -91 -70q37 -15 168 -16zM422 242l-5 11q-14 14 -39 14h-139l98 -102q83 44 85 77z"></glyph><glyph glyph-name="uniFE3D" unicode="︽" d="M246 524q0 -28 -21 -45t-43 -17q-28 0 -45 17t-17 45q0 52 62 52q64 1 64 -52zM422 0l-70 2l-42 6q-42 6 -105 56q-27 -23 -55 -38t-56 -20q-6 -5 -24 -5l-92 -1l1 89q67 0 99 6q37 7 56 26l-123 120l29 53l30 58h189q116 0 126 -97l-5 -45q-2 -18 -16 -34 q-7 -11 -33 -33q-16 -11 -54 -35q47 -18 145 -19v-89zM287 239l-5 14q-9 14 -36 14h-140l96 -102q83 42 85 74z"></glyph><glyph glyph-name="uniFE3E" unicode="︾" d="M293 510q0 -27 -19.5 -44t-43.5 -17q-28 0 -46.5 16.5t-18.5 44.5q0 52 65 52q63 1 63 -52zM424 0h-444v89h126l-13 28q-3 9 -9 28q-7 26 -7 51q0 48 23 85q47 72 138 72q85 0 154 -66l-43 -68q-71 53 -117 53l-26 -5q-44 -20 -44 -78q0 -39 20 -71q24 -29 51 -29h176z "></glyph><glyph glyph-name="afii57441" unicode="ف" d="M653 527q0 -26 -20 -43t-43 -17q-64 0 -65 60q-1 52 65 53q62 1 63 -53zM752 159q2 -85 -53 -130q-36 -29 -83 -29h-459q-48 0 -91 43q-35 45 -35 100v133h89v-120q0 -36 7 -47q13 -20 57 -20h422q41 0 53 17q1 8 9 49q-124 0 -156 11q-71 24 -71 119q0 67 40.5 103 t108.5 37q61 1 110 -47t51 -119zM665 237q0 70 -53 94q-11 7 -29 7q-68 0 -68 -57q0 -32 32 -40l37 -3z"></glyph><glyph glyph-name="uniFE3F" unicode="︿" d="M665 517q0 -28 -20 -45.5t-44 -17.5q-29 0 -46.5 19.5t-17.5 43.5q0 51 64 51t64 -51zM805 0q-150 0 -191 20q-11 -19 -167 -19l-293 -1q-51 0 -87 49q-30 41 -30 94v133h88v-120q0 -67 65 -67h305q-49 53 -49 120q0 54 43 98t116 45q62 1 108 -49q39 -43 39 -111 q0 -32 -8 -54q-7 -25 -25 -49h86v-89zM671 189q1 20 -12.5 41.5t-32.5 29.5q-11 7 -27 7q-27 0 -48.5 -20t-21.5 -46q0 -49 89 -94q52 32 53 82z"></glyph><glyph glyph-name="uniFE40" unicode="﹀" d="M273 510q0 -25 -19.5 -43t-44.5 -18q-29 0 -47 18q-4 4 -12 20q-5 10 -5 23q0 52 64 52q64 1 64 -52zM443 0l-29 2h-22l-63 2q-13 0 -37 1q-11 1 -33 4l-39 15q-41 -24 -251 -24v89h130q-48 54 -48 120q0 59 42 101t116 42q68 0 110 -49q38 -46 38 -111q0 -29 -9 -55 q-10 -29 -23 -48h118v-89zM275 189q0 30 -23 53q-15 14 -24 19.5t-24 5.5q-26 0 -48 -20.5t-22 -46.5q-1 -52 89 -93q52 39 52 82z"></glyph><glyph glyph-name="uniFE41" unicode="﹁" d="M0 0zM281 537q1 -26 -22 -44q-17 -14 -43 -17q-26 0 -45 19q-17 16 -17 42q0 53 62 53q63 0 65 -53zM392 147q4 -58 -40.5 -102.5t-102.5 -44.5h-265v89h266q49 0 49 65q-125 0 -156 8q-72 28 -72 120q0 64 42 103t106 40q62 1 111 -42q27 -24 41 -58q7 -16 12 -36 q1 -7 3 -40zM293 238q0 47 -28 74q-23 22 -55 22q-21 0 -41 -13q-16 -13 -16 -33q0 -39 22 -46q9 -4 61 -4h57z"></glyph><glyph glyph-name="afii57505" unicode="ڤ" d="M752 159q2 -85 -53 -130q-36 -29 -83 -29h-459q-48 0 -91 43q-35 45 -35 100v133h89v-120q0 -36 7 -47q13 -20 57 -20h422q41 0 53 17q1 8 9 49q-124 0 -156 11q-71 24 -71 119q0 67 40.5 103t108.5 37q61 1 110 -47t51 -119zM665 237q0 70 -53 94q-11 7 -29 7 q-68 0 -68 -57q0 -32 32 -40l37 -3zM642 649q0 -22 -19.5 -38t-41.5 -16t-40 16t-18 38q-1 47 58 47q61 0 61 -47zM727 524q0 -21 -18 -37q-14 -13 -43 -16q-24 0 -39 14q-9 8 -14 18q-4 7 -4 21q0 49 57 49q61 0 61 -49zM556 524q0 -22 -15.5 -36t-42.5 -17q-25 0 -40 14 q-3 2 -14 18q-4 10 -4 21q0 49 58 49t58 -49z"></glyph><glyph glyph-name="uniFE42" unicode="﹂" d="M805 0q-150 0 -191 20q-11 -19 -167 -19l-293 -1q-51 0 -87 49q-30 41 -30 94v133h88v-120q0 -67 65 -67h305q-49 53 -49 120q0 54 43 98t116 45q62 1 108 -49q39 -43 39 -111q0 -32 -8 -54q-7 -25 -25 -49h86v-89zM671 189q1 20 -12.5 41.5t-32.5 29.5q-11 7 -27 7 q-27 0 -48.5 -20t-21.5 -46q0 -49 89 -94q52 32 53 82zM668 578q0 -22 -19 -38t-42 -16q-21 0 -39 16.5t-19 37.5q-1 48 58 48q61 0 61 -48zM753 454q0 -21 -17 -38q-14 -13 -43 -16q-24 0 -40 14q-9 9 -13 19q-5 7 -5 21q0 48 58 48q60 0 60 -48zM583 454 q0 -22 -15.5 -36.5t-43.5 -17.5q-24 0 -40 14q-2 3 -14 19q-4 9 -4 21q0 48 58 48q59 0 59 -48z"></glyph><glyph glyph-name="uniFE43" unicode="﹃" d="M443 0l-29 2h-22l-63 2q-13 0 -37 1q-11 1 -33 4l-39 15q-41 -24 -251 -24v89h130q-48 54 -48 120q0 59 42 101t116 42q68 0 110 -49q38 -46 38 -111q0 -29 -9 -55q-10 -29 -23 -48h118v-89zM275 189q0 30 -23 53q-15 14 -24 19.5t-24 5.5q-26 0 -48 -20.5t-22 -46.5 q-1 -52 89 -93q52 39 52 82zM264 586q0 -22 -19 -38t-42 -16q-21 0 -39 16.5t-19 37.5q-1 48 58 48q61 0 61 -48zM349 462q0 -22 -15.5 -36.5t-44.5 -17.5q-24 0 -40 14q-9 9 -13 19q-5 6 -5 21q0 48 58 48q60 0 60 -48zM179 462q0 -22 -15.5 -36.5t-42.5 -17.5 q-25 0 -41 14q-2 3 -14 19q-4 9 -4 21q0 48 59 48q58 0 58 -48z"></glyph><glyph glyph-name="uniFE44" unicode="﹄" d="M0 0zM392 147q4 -58 -40.5 -102.5t-102.5 -44.5h-265v89h266q49 0 49 65q-125 0 -156 8q-72 28 -72 120q0 64 42 103t106 40q62 1 111 -42q27 -24 41 -58q7 -16 12 -36q1 -7 3 -40zM293 238q0 47 -28 74q-23 22 -55 22q-21 0 -41 -13q-16 -13 -16 -33q0 -39 22 -46 q9 -4 61 -4h57zM273 639q0 -22 -19 -38t-42 -16q-21 0 -39.5 16t-18.5 38q-1 47 58 47q61 0 61 -47zM358 515q0 -22 -15.5 -36.5t-45.5 -17.5q-24 0 -39 14q-9 9 -13 19q-5 6 -5 21q0 48 57 48q61 0 61 -48zM187 515q0 -23 -15 -37t-43 -17q-25 0 -40 14q-3 2 -14 19 q-4 9 -4 21q0 48 58 48t58 -48z"></glyph><glyph glyph-name="afii57442" unicode="ق" d="M586 517q0 -24 -17.5 -38t-41.5 -14t-41.5 14t-17.5 38q0 47 59 47t59 -47zM415 517q0 -23 -17 -37.5t-40 -14.5q-25 0 -43 13.5t-18 38.5q0 47 61 47q57 0 57 -47zM613 171l-1 -32l-3 -39q-7 -77 -71 -129.5t-143 -52.5h-135q-93 0 -152.5 68t-59.5 164v176h82v-179 q0 -60 40 -103t97 -43h123q61 0 100 45t40 107q-123 0 -156 11q-72 23 -72 118q0 63 41 100.5t104 38.5q60 0 111 -43q24 -20 40 -57q5 -12 11 -35q4 -14 4 -39v-76zM529 233q0 43 -31 78q-21 23 -56 23q-19 0 -45 -13q-5 -4 -12 -16q-4 -8 -6 -18q0 -36 23 -46 q27 -8 127 -8z"></glyph><glyph glyph-name="uniFE45" unicode="﹅" d="M567 378q0 -21 -18.5 -36.5t-40.5 -15.5q-24 0 -42 15q-14 11 -18 37q0 48 60 48q59 0 59 -48zM396 378q0 -24 -16.5 -38t-41.5 -14q-24 0 -42 15q-19 12 -19 37q0 48 61 48q58 0 58 -48zM678 0h-72q0 -26 -6 -46q-3 -23 -13 -42q-17 -40 -53 -71q-61 -64 -152 -64h-137 q-85 0 -149 73q-62 70 -62 155v184h88v-195q0 -49 51 -92q41 -34 90 -34h114q53 0 93 38q20 14 36 42q11 27 11 52q-87 0 -104 2q-37 3 -55 9q-79 27 -79 126q0 64 47 103q44 36 109 36q68 0 118 -45q55 -50 55 -142h70v-89zM520 89q0 37 -33 75q-26 22 -61 23q-11 0 -24 -3 t-20 -9q-16 -13 -17 -32q-1 -32 30 -49q21 -5 125 -5z"></glyph><glyph glyph-name="uniFE46" unicode="﹆" d="M339 521q0 -23 -18 -37q-7 -6 -19 -11q-8 -4 -21 -4q-19 0 -43 15q-16 17 -16 37q0 48 59 48q58 0 58 -48zM171 521q0 -23 -18 -37q-2 -1 -19 -11q-10 -4 -23 -4q-20 0 -41 15q-16 17 -16 37q0 48 57 48q60 0 60 -48zM443 0l-29 2h-22l-63 2q-13 0 -37 1q-11 1 -33 4 l-39 15q-41 -24 -251 -24v89h130q-48 54 -48 120q0 59 42 101t116 42q68 0 110 -49q38 -46 38 -111q0 -29 -9 -55q-10 -29 -23 -48h118v-89zM275 189q0 30 -23 53q-15 14 -24 19.5t-24 5.5q-26 0 -48 -20.5t-22 -46.5q-1 -52 89 -93q52 39 52 82z"></glyph><glyph glyph-name="uniFE47" unicode="﹇" d="M359 520q0 -21 -18 -39q-6 -3 -19 -10q-10 -3 -22 -3q-20 0 -41 13q-17 20 -17 39q0 48 58 48q59 0 59 -48zM190 520q0 -21 -18 -39q-5 -3 -18 -10q-11 -3 -23 -3q-21 0 -41 13q-17 20 -17 39q0 48 58 48q59 0 59 -48zM392 147q4 -58 -40.5 -102.5t-102.5 -44.5h-265v89 h266q49 0 49 65q-125 0 -156 8q-72 28 -72 120q0 64 42 103t106 40q62 1 111 -42q27 -24 41 -58q7 -16 12 -36q1 -7 3 -40zM293 238q0 47 -28 74q-23 22 -55 22q-21 0 -41 -13q-16 -13 -16 -33q0 -39 22 -46q9 -4 61 -4h57z"></glyph><glyph glyph-name="afii57443" unicode="ك" d="M612 89h-423q-45 0 -58 20q-8 13 -8 47v120h-88v-133q0 -56 37 -99.5t89 -43.5h453q57 0 95 31q42 34 42 89l-5 25l-3 27v403l-85 -1v-446q0 -39 -46 -39zM469 277l-149 -75l-12 24l50 27q-45 25 -45 64q0 46 45 70q13 7 27 7q16 -3 41 -11l-10 -23q-5 1 -14 4t-14 4 q-18 0 -34 -14q-14 -23 -14 -37q0 -38 40 -39q15 -1 32 7q14 3 43 18z"></glyph><glyph glyph-name="uniFE48" unicode="﹈" d="M622 89h-430q-46 0 -58 20q-8 10 -8 47v120h-88v-133q0 -56 34 -98q37 -45 92 -45h462q91 0 113 62q48 -62 145 -62v89q-46 1 -69 18l-56 42l-1 434h-92l-1 -462q0 -32 -43 -32zM469 277l-149 -75l-12 24l50 27q-45 25 -45 64q0 46 45 70q13 7 27 7q16 -3 41 -11l-10 -23 q-5 1 -14 4t-14 4q-18 0 -34 -14q-14 -23 -14 -37q0 -38 40 -39q15 -1 32 7q14 3 43 18z"></glyph><glyph glyph-name="uni06A9" unicode="ک" d="M751 120q0 -55 -42 -89q-38 -31 -95 -31h-453q-52 0 -89 43.5t-37 99.5v133h88v-120q0 -34 8 -47q13 -20 58 -20h423q46 0 46 39q0 18 -15 34l-230 239l-12 101l321 115l12 -88l-232 -89l206 -219q12 -12 31 -49l7 -27z"></glyph><glyph glyph-name="uniFE49" unicode="﹉" d="M884 0q-97 0 -145 62q-22 -62 -113 -62h-462q-55 0 -92 45q-34 42 -34 98v133h88v-120q0 -37 8 -47q12 -20 58 -20h430q43 0 43 32q0 16 -21 38l-230 242l-16 99l326 117l12 -88l-229 -86l245 -271l63 -65q23 -17 69 -18v-89z"></glyph><glyph glyph-name="uniFE4A" unicode="﹊" d="M521 0q-113 0 -159 64q-15 -36 -40 -49q-28 -15 -81 -15h-262v89h263q9 0 25 12q9 11 9 33q0 19 -9 25l-229 242l-17 99l325 117l12 -88l-230 -86l242 -270q13 -14 37 -38q11 -13 25 -21q38 -24 89 -25v-89z"></glyph><glyph glyph-name="uniFE4B" unicode="﹋" d="M392 121q0 -121 -133 -121h-276v89h276q34 0 34 39q0 15 -1 20t-10 11l-228 242l-15 97l323 119l14 -88l-229 -86l180 -202l29 -38l20 -31q16 -27 16 -51z"></glyph><glyph glyph-name="afii57509" unicode="گ" d="M708 667l-307 -112l-5 35l311 110zM761 118q1 -58 -40 -90q-37 -28 -97 -28h-453q-55 0 -91 44t-36 99v133h88v-120q0 -6 3 -30q2 -9 6 -16t21 -17q18 -4 38 -4h428q11 0 16 3q25 4 30 36q0 7 -1 10t-8 11l-243 252l-17 99l325 117l14 -88l-230 -87l204 -226 q42 -46 43 -98z"></glyph><glyph glyph-name="uniFE4C" unicode="﹌" d="M695 667l-307 -112l-3 35l308 110zM878 0q-100 0 -145 62q-24 -62 -114 -62h-462q-48 0 -91 43q-35 45 -35 100v133h89v-120q0 -36 7 -47q13 -20 57 -20h430q45 0 45 32q0 16 -21 38q-45 46 -107 110q-21 20 -77 80q-18 21 -47 52l-15 99l325 117l12 -88l-229 -86 l244 -271l63 -65q23 -17 71 -18v-89z"></glyph><glyph glyph-name="uniFE4D" unicode="﹍" d="M333 667l-307 -112l-5 35l310 110zM517 0q-46 0 -91 17q-39 14 -64 54q-13 -33 -35 -53q-27 -18 -77 -18h-261v89h263q45 0 45 32q0 16 -22 38l-230 242l-14 99l324 117l14 -88l-235 -88l245 -269q54 -60 79 -74l21 -7l38 -2v-89z"></glyph><glyph glyph-name="uniFE4E" unicode="﹎" d="M324 667l-308 -112l-5 35l310 110zM376 121q0 -81 -79 -111q-25 -10 -60 -10h-258v89h258q49 0 50 32q0 11 -17 36l-233 244l-17 99l326 117l12 -88l-232 -88l226 -251q24 -32 24 -69z"></glyph><glyph glyph-name="afii57444" unicode="ل" d="M619 11q0 -96 -63 -165t-158 -69h-134q-84 0 -151 73t-67 155v184h89v-195q0 -54 44 -90t100 -36h113q51 0 95 38.5t44 87.5v570h88v-553z"></glyph><glyph glyph-name="uniFE4F" unicode="﹏" d="M708 0q-69 0 -99 42q0 -120 -69 -200q-65 -65 -154 -65h-136q-82 0 -146.5 68.5t-64.5 159.5v184h86v-195q0 -55 43 -92t99 -37h113q54 0 96 37q25 22 34.5 42t9.5 50v570h88v-414q0 -60 100 -61v-89z"></glyph><glyph glyph-name="brokenbar" unicode="﹘" d="M458 135q0 -53 -26 -84q-15 -22 -46 -40q-34 -11 -67 -11h-83q-174 0 -174 135v429h88v-391q0 -59 16 -74q11 -10 70 -10h76q36 0 52 20q7 28 7 64v391h87v-429z"></glyph><glyph glyph-name="section" unicode="﹙" d="M531 0q-75 0 -121 57q-44 -57 -118 -57h-82q-171 0 -171 135v429h86v-391q0 -30 3.5 -47t12.5 -27t69 -10h76q35 0 52 20q4 10 4 27q0 4 2 16.5t2 20.5v391h88v-399q0 -48 27 -64q21 -12 70 -12v-89z"></glyph><glyph glyph-name="dieresis" unicode="﹚" d="M311 0h-26q-20 0 -46 1q-10 0 -30 5q-25 5 -52 28q-29 -25 -58 -30q-17 -4 -116 -4v89l35 -1h28q40 0 52 15l8 20q5 22 5 50v391h89v-408q0 -47 28 -61q18 -3 36 -4q15 -1 47 -2v-89z"></glyph><glyph glyph-name="copyright" unicode="﹛" d="M190 135q0 -85 -73 -124q-33 -11 -68 -11h-67v89h62q36 0 51 20q9 16 9 64v391h86v-429z"></glyph><glyph glyph-name="ordfeminine" unicode="م" d="M532 147q0 -63 -45.5 -105.5t-108.5 -43.5q-61 0 -108 41t-47 119v108l-14 1q-49 3 -79 -52q-7 -17 -7 -37v-401h-85v390q0 82 46 133.5t127 51.5h181q105 0 129 -90q10 -39 11 -115zM446 153q0 81 -15 95q-10 10 -39 12q-27 6 -83 6v-123q0 -23 21 -42q19 -11 50 -15 q66 0 66 67z"></glyph><glyph glyph-name="guillemotleft" unicode="﹜" d="M627 0q-45 0 -81 10q-23 12 -51 54q-28 -70 -112 -70q-62 0 -110 43q-52 46 -52 121v108q-43 0 -71 -25t-28 -63v-401h-85v390q0 86 49 142q47 43 123 43h179q141 0 142 -207q0 -55 97 -56v-89zM443 153q0 80 -14 92q-23 21 -124 21v-123q0 -27 23 -45q20 -15 48 -15 q26 0 46.5 16t20.5 54z"></glyph><glyph glyph-name="logicalnot" unicode="﹝" d="M457 0q-45 0 -72 10q-23 15 -38 41q-38 -62 -122 -62q-27 0 -67 19q-34 22 -48 43q-9 -51 -134 -51v89q76 0 86 14q4 3 9 76q5 77 38 120q40 53 116 53q70 0 112 -53q39 -49 41 -128q2 -52 11 -66.5t68 -15.5v-89zM299 171q0 95 -75 95q-77 0 -77 -95q0 -96 77 -96 q75 0 75 96z"></glyph><glyph glyph-name="uniFE5E" unicode="﹞" d="M383 171q0 -81 -40.5 -131.5t-112.5 -50.5q-57 0 -100 32q-21 -8 -59 -14.5t-89 -6.5v89q72 0 86 14q5 6 6 68q1 78 38 127q42 54 118 54q68 0 110.5 -53.5t42.5 -127.5zM305 171q0 95 -75 95q-76 0 -77 -95q-1 -96 77 -96q75 0 75 96z"></glyph><glyph glyph-name="registered" unicode="ن" d="M358 297q0 -26 -20.5 -43t-44.5 -17q-27 0 -44.5 16.5t-17.5 43.5q0 52 62 52q65 1 65 -52zM607 15q0 -106 -70 -177q-60 -61 -152 -61h-136q-84 0 -147.5 68.5t-63.5 159.5v184h85v-195q0 -54 44 -91.5t99 -37.5h113q55 0 97 37q24 21 33 42t9 50v282h89v-261z"></glyph><glyph glyph-name="overscore" unicode="﹟" d="M360 297q0 -28 -20 -44t-43 -16q-28 0 -46.5 16t-18.5 44q0 52 65 52q63 1 63 -52zM706 0q-71 0 -98 42q0 -120 -69 -200q-65 -65 -154 -65h-136q-84 0 -147.5 68.5t-63.5 159.5v184h85v-195q0 -54 44 -91.5t99 -37.5h113q55 0 97 37q24 21 33 42t9 50v282h89v-126 q0 -60 99 -61v-89z"></glyph><glyph glyph-name="degree" unicode="﹠" d="M167 414q1 -25 -18 -43t-45 -18t-48 17q-16 21 -16 44q0 53 64 54q62 1 63 -54zM359 0h-28l-38 1h-17q-4 1 -9 5q-34 6 -58 28q-49 -34 -86 -34h-144v89h116q45 0 59 20q4 16 4 19q3 27 3 28v120h89v-120q0 -66 109 -67v-89z"></glyph><glyph glyph-name="plusminus" unicode="﹡" d="M167 414q1 -25 -18 -43t-45 -18t-48 17q-16 21 -16 44q0 53 64 54q62 1 63 -54zM255 143q0 -27 -9 -51.5t-30 -48.5q-37 -43 -89 -43h-145v89h117q45 0 58 20q2 5 5 18q3 9 3 29v120h90v-133z"></glyph><glyph glyph-name="twosuperior" unicode="و" d="M383 -11q0 -86 -67.5 -149t-154.5 -63h-113l-13 88h112q66 0 107 42q30 29 37 64q3 12 3 29q-103 0 -155 26q-71 37 -72 139q-1 113 54 161q31 27 104 27q102 0 138 -84q20 -44 20 -170v-110zM294 89v89q0 87 -69 87q-30 0 -50 -17q-17 -22 -17 -76q0 -59 42 -75 q21 -8 94 -8z"></glyph><glyph glyph-name="threesuperior" unicode="﹢" d="M451 0h-59q0 -87 -66 -158q-27 -29 -71 -47t-90 -18h-114l-12 88h111q97 0 137 84q10 22 10 51q-107 0 -158 28q-68 38 -68 137q0 110 52 161q33 25 105 26q117 1 149 -105q14 -48 15 -158h59v-89zM302 89v83q0 27 -8 45q-3 15 -21 31q-22 17 -45 17q-28 0 -50 -17 q-17 -22 -17 -76q0 -50 28 -67q23 -15 113 -16z"></glyph><glyph glyph-name="acute" unicode="ؤ" d="M383 -11q0 -86 -67.5 -149t-154.5 -63h-113l-13 88h112q66 0 107 42q30 29 37 64q3 12 3 29q-103 0 -155 26q-71 37 -72 139q-1 113 54 161q31 27 104 27q102 0 138 -84q20 -44 20 -170v-110zM294 89v89q0 87 -69 87q-30 0 -50 -17q-17 -22 -17 -76q0 -59 42 -75 q21 -8 94 -8zM304 493l-148 -76l-13 25l51 27q-45 25 -45 64q0 30 21.5 53t50.5 23q21 -3 42 -11l-11 -22l-15 3t-14 4q-18 0 -33 -15q-14 -21 -14 -35q0 -38 39 -40q10 -1 33 6.5t44 18.5z"></glyph><glyph glyph-name="mu1" unicode="﹣" d="M451 0h-59q0 -87 -66 -158q-27 -29 -71 -47t-90 -18h-114l-12 88h111q97 0 137 84q10 22 10 51q-107 0 -158 28q-68 38 -68 137q0 110 52 161q33 25 105 26q117 1 149 -105q14 -48 15 -158h59v-89zM302 89v83q0 27 -8 45q-3 15 -21 31q-22 17 -45 17q-28 0 -50 -17 q-17 -22 -17 -76q0 -50 28 -67q23 -15 113 -16zM304 493l-148 -76l-13 25l51 27q-45 25 -45 64q0 30 21.5 53t50.5 23q21 -3 42 -11l-11 -22l-15 3t-14 4q-18 0 -33 -15q-14 -21 -14 -35q0 -38 39 -40q10 -1 33 6.5t44 18.5z"></glyph><glyph glyph-name="paragraph" unicode="ه" d="M370 153q1 -66 -50 -114t-118 -49q-70 0 -119 49t-49 119q0 59 32 100l26 34l43 45l-26 28l60 60l161 -166q40 -41 40 -106zM283 153q0 24 -14 43l-70 76q-12 -12 -35 -36l-30 -35l-9 -19l-5 -29q0 -18 19 -49q26 -29 63 -29q26 0 48 13.5t27 36.5q6 12 6 28z"></glyph><glyph glyph-name="middot" unicode="﹤" d="M524 0q-64 0 -84 16q-6 2 -28 22l-65 57q-49 -104 -161 -105q-36 0 -63.5 10.5t-55.5 38.5q-49 47 -49 119q-1 49 33 100q17 25 70 79l-27 28l61 60l264 -281q16 -18 49 -46q13 -8 56 -9v-89zM270 153q0 20 -16 48l-71 71q-77 -73 -77 -119q0 -23 20 -50.5t61 -27.5 q32 0 57.5 23t25.5 55z"></glyph><glyph glyph-name="cedilla" unicode="ة" d="M370 153q1 -66 -50 -114t-118 -49q-70 0 -119 49t-49 119q0 59 32 100l26 34l43 45l-26 28l60 60l161 -166q40 -41 40 -106zM283 153q0 24 -14 43l-70 76q-12 -12 -35 -36l-30 -35l-9 -19l-5 -29q0 -18 19 -49q26 -29 63 -29q26 0 48 13.5t27 36.5q6 12 6 28zM342 518 q0 -23 -17 -38q-14 -11 -42 -14q-5 0 -23 3q-3 1 -18 11q-18 18 -18 38q0 50 59 50t59 -50zM173 518q0 -21 -17.5 -36.5t-40.5 -15.5t-42 14q-15 16 -18 38q0 50 60 50q58 0 58 -50z"></glyph><glyph glyph-name="onesuperior" unicode="﹥" d="M524 0q-64 0 -84 16q-6 2 -28 22l-65 57q-49 -104 -161 -105q-36 0 -63.5 10.5t-55.5 38.5q-49 47 -49 119q-1 49 33 100q17 25 70 79l-27 28l61 60l264 -281q16 -18 49 -46q13 -8 56 -9v-89zM270 153q0 20 -16 48l-71 71q-77 -73 -77 -119q0 -23 20 -50.5t61 -27.5 q32 0 57.5 23t25.5 55zM320 530q0 -22 -17 -37q-13 -14 -43 -17q-20 0 -40 15q-18 19 -18 39q0 48 58 48q60 0 60 -48zM150 530q0 -24 -16.5 -39t-41.5 -15q-22 0 -41 15q-15 16 -18 39q0 48 59 48q58 0 58 -48z"></glyph><glyph glyph-name="ordmasculine" unicode="ۀ" d="M370 153q1 -66 -50 -114t-118 -49q-70 0 -119 49t-49 119q0 59 32 100l26 34l43 45l-26 28l60 60l161 -166q40 -41 40 -106zM283 153q0 24 -14 43l-70 76q-12 -12 -35 -36l-30 -35l-9 -19l-5 -29q0 -18 19 -49q26 -29 63 -29q26 0 48 13.5t27 36.5q6 12 6 28zM260 547 l-149 -74l-12 23l51 28q-45 25 -45 65q0 29 22 52t49 23q24 -4 43 -11l-10 -23q-15 2 -31 8q-16 0 -33 -14q-13 -24 -13 -35q0 -39 40 -41q8 0 32 7.5t43 18.5z"></glyph><glyph glyph-name="guillemotright" unicode="﹦" d="M524 0q-64 0 -84 16q-6 2 -28 22l-65 57q-49 -104 -161 -105q-36 0 -63.5 10.5t-55.5 38.5q-49 47 -49 119q-1 49 33 100q17 25 70 79l-27 28l61 60l264 -281q16 -18 49 -46q13 -8 56 -9v-89zM270 153q0 20 -16 48l-71 71q-77 -73 -77 -119q0 -23 20 -50.5t61 -27.5 q32 0 57.5 23t25.5 55zM260 547l-149 -74l-12 23l51 28q-45 25 -45 65q0 29 22 52t49 23q24 -4 43 -11l-10 -23q-15 2 -31 8q-16 0 -33 -14q-13 -24 -13 -35q0 -39 40 -41q8 0 32 7.5t43 18.5z"></glyph><glyph glyph-name="onequarter" unicode="﹧" d="M407 0h-111q28 -19 46 -56q6 -13 15 -36q3 -19 3 -36q0 -102 -129 -103q-42 -1 -73 9q-34 12 -54 32q-26 27 -44 95l-11 95h-75v89h71l-5 73q-14 187 163 189q69 1 112 -44q36 -38 37 -97q1 -72 -59 -121h114v-89zM269 209q0 60 -59 60q-87 0 -83 -125l1 -55 q67 0 104 38.5t37 81.5zM287 -101q0 34 -40 72q-45 35 -116 36q0 -164 88 -164q68 0 68 56z"></glyph><glyph glyph-name="onehalf" unicode="﹨" d="M535 117q0 -35 -23 -73q-46 -77 -120 -78q-67 -1 -183 65q-13 -7 -40 -19q-11 -3 -31 -7l-55 -4l-99 -1v89h123q-27 33 -36 59l-9 28l-4 33q0 60 42.5 101.5t99.5 42.5q59 1 109 -48l-59 60l66 60q219 -209 219 -308zM443 111q0 54 -123 178q32 -27 33 -90 q1 -86 -54 -113q48 -30 86 -30q27 0 49 23l3 10zM268 203q0 24 -21 47t-53 23q-22 0 -38 -19l-9 -16l-5 -29q0 -55 69 -84q57 25 57 78z"></glyph><glyph glyph-name="threequarters" unicode="ی" d="M600 5q1 -56 -15 -94q-18 -44 -50 -75q-62 -59 -150 -59h-138q-86 0 -147 67.5t-61 160.5v182h82v-193q0 -56 51 -101q43 -30 93 -30h113q25 0 46 9q20 5 44 23q46 36 47 88q1 51 -84 61h-120v150q0 70 46 111q43 47 110 47h106l3 -83h-106q-43 0 -65 -42 q-12 -36 -12 -100q122 0 161 -21q45 -23 46 -101z"></glyph><glyph glyph-name="questiondown" unicode="﹩" d="M645 0h-82l5 -43q0 -74 -59 -127t-133 -53h-137q-100 0 -164 78q-54 65 -54 176v158h88v-193q0 -42 34 -87q40 -44 116 -44h112q25 0 41 7q18 3 32 16q36 26 36 75q0 29 -81 35q-19 2 -102 2l-6 89h354v-89z"></glyph><glyph glyph-name="Agrave" unicode="ي" d="M600 5q1 -56 -15 -94q-18 -44 -50 -75q-62 -59 -150 -59h-138q-86 0 -147 67.5t-61 160.5v182h82v-193q0 -56 51 -101q43 -30 93 -30h113q25 0 46 9q20 5 44 23q46 36 47 88q1 51 -84 61h-120v150q0 70 46 111q43 47 110 47h106l3 -83h-106q-43 0 -65 -42 q-12 -36 -12 -100q122 0 161 -21q45 -23 46 -101zM452 -320q0 -23 -17 -38q-13 -11 -42 -16q-21 0 -41 15q-18 19 -18 39q0 48 59 48t59 -48zM283 -320q0 -24 -17 -39t-41 -15q-22 0 -42 15q-15 18 -18 39q0 48 60 48q58 0 58 -48z"></glyph><glyph glyph-name="Aacute" unicode="﹪" d="M645 0h-82l5 -43q0 -74 -59 -127t-133 -53h-137q-100 0 -164 78q-54 65 -54 176v158h88v-193q0 -42 34 -87q40 -44 116 -44h112q25 0 41 7q18 3 32 16q36 26 36 75q0 29 -81 35q-19 2 -102 2l-6 89h354v-89zM442 -309q0 -22 -18 -38q-13 -11 -41 -15q3 0 -23 3 q-6 2 -19 11q-17 17 -17 39q0 49 59 49t59 -49zM273 -309q0 -24 -17.5 -38.5t-41.5 -14.5t-42 14q-14 15 -17 39q0 49 59 49t59 -49z"></glyph><glyph glyph-name="Acircumflex" unicode="﹫" d="M379 0l-53 1l-27 4l-22 11l-23 18q-24 -17 -43.5 -25.5t-39.5 -8.5h-191v89h163q59 0 63 38q3 9 3 29v120h88v-120q0 -39 14 -55q19 -12 68 -12v-89zM302 -167q0 -22 -19 -38q-5 -4 -18 -10q-8 -5 -23 -5q-20 0 -41 17q-17 16 -17 36q0 47 58 47q60 0 60 -47zM132 -167 q0 -23 -17 -38q-11 -8 -20 -10q-6 -5 -21 -5q-22 0 -40 15.5t-18 37.5q0 47 58 47t58 -47z"></glyph><glyph glyph-name="Atilde" unicode="﹬" d="M297 143q0 -54 -37 -98.5t-88 -44.5h-190v89h161q59 0 63 38q3 9 3 29v120h88v-133zM282 -169q0 -22 -18 -37q-9 -7 -18 -11t-23 -4q-24 0 -41 16t-17 36q0 48 58 48q59 0 59 -48zM112 -169q0 -24 -18 -37q-6 -7 -18 -10q-7 -5 -21 -5q-20 0 -44 17q-14 14 -16 35 q0 48 60 48q57 0 57 -48z"></glyph><glyph glyph-name="Adieresis" unicode="ئ" d="M600 5q1 -56 -15 -94q-18 -44 -50 -75q-62 -59 -150 -59h-138q-86 0 -147 67.5t-61 160.5v182h82v-193q0 -56 51 -101q43 -30 93 -30h113q25 0 46 9q20 5 44 23q46 36 47 88q1 51 -84 61h-120v150q0 70 46 111q43 47 110 47h106l3 -83h-106q-43 0 -65 -42 q-12 -36 -12 -100q122 0 161 -21q45 -23 46 -101zM289 300l-149 -75l-12 24l50 27q-45 25 -45 65q0 45 45 69q13 7 27 7q16 -3 41 -11l-10 -23q-5 1 -14 4t-14 4q-18 0 -34 -14q-14 -23 -14 -36q0 -39 40 -40q15 0 32 7q14 3 43 18z"></glyph><glyph glyph-name="Aring" unicode="﹭" d="M645 0h-82l5 -43q0 -74 -59 -127t-133 -53h-137q-100 0 -164 78q-54 65 -54 176v158h88v-193q0 -42 34 -87q40 -44 116 -44h112q25 0 41 7q18 3 32 16q36 26 36 75q0 29 -81 35q-19 2 -102 2l-6 89h354v-89zM315 282l-149 -74l-12 23l50 28q-45 24 -45 64q0 46 45 69 q14 8 27 8q16 -4 42 -12l-11 -23q-5 1 -14 4t-14 4q-18 0 -33 -14q-14 -22 -14 -36q0 -39 39 -40q15 0 33 7q13 3 43 19z"></glyph><glyph glyph-name="AE" unicode="﹮" d="M216 382l-149 -75l-12 24l51 28q-45 24 -45 64q0 28 21 53q23 22 50 22q18 -2 43 -10l-11 -23q-5 1 -14.5 3t-14.5 5q-18 0 -34 -15q-12 -19 -12 -35q0 -38 38 -40q14 -1 32 7q20 4 44 18zM357 0h-15q-45 0 -63 4q-14 4 -47 30q-43 -34 -82 -34h-160v89h131q58 0 62 39 q0 9 3 28v120h89v-120q0 -35 14 -53q12 -13 68 -14v-89z"></glyph><glyph glyph-name="Ccedilla" unicode="﹯" d="M219 378l-149 -74l-13 23l51 29q-46 24 -46 65q0 22 22 52q24 22 51 22q9 -1 22 -4q4 -2 19 -6l-11 -24q-9 6 -29 9q-15 0 -32 -13q-13 -20 -13 -36q-1 -39 37 -41q11 0 35 8t42 19zM255 143q0 -27 -9 -51.5t-30 -48.5q-37 -43 -89 -43h-145v89h117q45 0 58 20q2 5 5 18 q3 9 3 29v120h90v-133z"></glyph><glyph glyph-name="Ograve" unicode="َ" d="M222 751l-264 -65l-13 39l265 68z"></glyph><glyph glyph-name="Ocircumflex" unicode="ِ" d="M222 -511l-264 -66l-13 39l265 69z"></glyph><glyph glyph-name="Odieresis" unicode="ُ" d="M220 818q1 -68 -84 -88l-181 -43l-10 38q61 12 125 35q-22 27 -22 54q0 30 26 55t55 25q35 1 63 -23.5t28 -52.5zM173 812q1 18 -16 30q-9 7 -23 7q-40 0 -40 -37q0 -17 12 -26q12 -12 28 -12q15 0 27 11t12 27z"></glyph><glyph glyph-name="multiply" unicode="ﹳ" d="M282 642q1 -68 -85 -88l-180 -43l-11 38q62 12 125 35q-21 27 -21 54q0 30 25.5 55t55.5 25q34 1 62 -23.5t29 -52.5zM235 636q1 18 -16 30q-10 7 -24 7q-39 0 -39 -37q0 -17 11 -26q13 -12 28 -12q16 0 27.5 11t12.5 27z"></glyph><glyph glyph-name="Oslash" unicode="ً" d="M222 838l-264 -66l-13 40l265 68zM222 751l-264 -65l-13 39l265 68z"></glyph><glyph glyph-name="Uacute" unicode="ٍ" d="M218 -511l-265 -66l-12 39l264 69zM218 -598l-265 -66l-12 39l264 69z"></glyph><glyph glyph-name="Ucircumflex" unicode="﹵" d="M280 -116l-265 -66l-12 39l264 69zM280 -203l-265 -66l-12 40l264 68z"></glyph><glyph glyph-name="Udieresis" unicode="ٌ" d="M220 818q1 -68 -84 -88l-181 -43l-10 38q42 11 42 47q0 20 -14 20q-11 0 -28 -10l-19 27q24 33 54 33q41 0 41 -44q0 -34 -19 -59q21 5 68 21q-22 27 -22 54q0 30 26 55t55 25q35 1 63 -23.5t28 -52.5zM173 812q1 18 -16 30q-9 7 -23 7q-40 0 -40 -37q0 -17 12 -26 q12 -12 28 -12q15 0 27 11t12 27z"></glyph><glyph glyph-name="Thorn" unicode="ّ" d="M216 784q1 -28 -15 -51q-17 -19 -43 -19q-49 0 -75 39q-30 -65 -90 -65q-27 0 -42 22q-15 17 -15 42q-1 36 22 87l32 -17q-9 -23 -15 -49q0 -34 28 -34q55 0 53 92l43 24q1 -92 48 -92q29 0 29 32q0 18 -25 55l34 25q31 -44 31 -91z"></glyph><glyph glyph-name="igrave" unicode="ۤ" d="M309 681h-163l-38 -3q-14 -3 -22 -8q-13 -12 -22 -35l-59 23q25 52 43 65q11 10 29 15q22 6 49 6l183 1v-64z"></glyph><glyph glyph-name="icircumflex" unicode="ْ" d="M174 784q0 -40 -28 -68.5t-68 -28.5t-68 28.5t-28 68.5q0 37 29.5 66t66.5 29q39 0 69 -31q27 -29 27 -64zM127 785q0 20 -13 33.5t-37 13.5q-19 0 -34 -15t-15 -33q0 -22 14.5 -36.5t35.5 -14.5q19 0 34 14q15 11 15 38z"></glyph><glyph glyph-name="eth" unicode="ٴ" d="M242 806l-157 -80l-14 26l55 29q-49 24 -49 68q0 29 22 55q26 25 54 25q21 -5 44 -12l-11 -24q-6 1 -16 4q-5 1 -14 4q-20 0 -35 -16q-15 -21 -15 -36q0 -42 41 -43q27 0 81 27z"></glyph><glyph glyph-name="ograve" unicode="ٰ" d="M109 855l-16 -169h-28l-18 169h62z"></glyph><glyph glyph-name="ocircumflex" unicode="ô" d="M56 663l43 39l15 16q-28 6 -52 6q-29 0 -41 -14l-10 -35q-4 8 -4 17q0 40 46 54q13 4 29 4q21 1 46 -10q48 44 91 44q33 0 56 -26q18 -21 18 -45q0 -7 -3.5 -11t-35.5 -9q-7 -1 -18 -1l-35 1q-18 0 -37 5l-36 9zM150 727q5 -1 27 -7l23 -3l20 -1h6l12 1q9 1 13 3.5 t6 10.5q0 9 -9.5 18.5t-26.5 9.5q-19 0 -48 -16q-6 -4 -23 -16z"></glyph><glyph glyph-name="otilde" unicode="õ" d="M118 487l42 39l15 16q-27 6 -51 6q-30 0 -41 -14l-11 -35q-3 8 -3 17q0 40 45 54q13 4 29 4q22 1 47 -10q48 44 91 44q32 0 55 -26q19 -21 19 -45q0 -7 -4 -11t-35 -9q-8 -1 -19 -1l-35 1q-17 0 -37 5l-35 9zM211 551q5 -1 27 -7l23 -3l21 -1h6l11 1q10 1 14 3.5t6 10.5 q0 9 -9.5 18.5t-27.5 9.5t-47 -16q-7 -4 -24 -16z"></glyph><glyph glyph-name="ugrave" unicode="ى" d="M600 5q1 -56 -15 -94q-18 -44 -50 -75q-62 -59 -150 -59h-138q-86 0 -147 67.5t-61 160.5v182h82v-193q0 -56 51 -101q43 -30 93 -30h113q25 0 46 9q20 5 44 23q46 36 47 88q1 51 -84 61h-120v150q0 70 46 111q43 47 110 47h106l3 -83h-106q-43 0 -65 -42 q-12 -36 -12 -100q122 0 161 -21q45 -23 46 -101z"></glyph><glyph glyph-name="uacute" unicode="0" d="M453 158q0 -55 -50.5 -101t-105.5 -46q-58 0 -108 45t-50 102q0 52 49.5 104.5t108.5 52.5q56 0 106 -50t50 -107zM383 158q0 49 -56 80q-13 7 -30 7q-34 0 -61 -27t-27 -60q0 -30 27 -59q6 -6 28 -18q15 -6 33 -6q33 0 59.5 24t26.5 59z"></glyph><glyph glyph-name="ucircumflex" unicode="1" d="M360 -99h-85v271q0 50 -10 138q-3 25 -13 67l-8 32q-3 19 -12 38l84 28l31 -118q3 -31 10 -97q3 -27 3 -88v-271z"></glyph><glyph glyph-name="udieresis" unicode="2" d="M469 322q3 -65 -66 -106q-20 -11 -32 -13q-8 -3 -33 -4q-40 -1 -85 28l1 -326h-89v257q0 119 -22 227q-7 33 -20 62l86 28l35 -145q13 -55 65 -55q27 0 48 18q7 7 14 22q4 8 6 28l-14 106l29 10l52 17l17 -83q6 -28 7 -54z"></glyph><glyph glyph-name="yacute" unicode="3" d="M568 332q3 -40 -36 -88q-38 -36 -90 -38q-51 -2 -109 61q0 -63 -92 -64q-44 0 -87 23l1 -325h-87v257q0 170 -43 289l86 28l33 -145q13 -55 66 -55q17 0 27 4q6 3 22 14q19 18 22 50l-17 106l83 31q21 -114 19 -156l-1 -24q22 -27 55 -27q28 0 45 19q18 16 20 51l-15 106 l82 26l15 -117z"></glyph><glyph glyph-name="thorn" unicode="4" d="M526 228q-38 -18 -90 -34l-43 -7q-21 -3 -44 -3q-41 0 -76 8q-43 10 -80 27l1 -318h-86v264q0 62 -9 132q-1 7 -4 22q0 4 -2 11q0 13 -7 40l-20 77l83 28l23 -93l15 -79l45 -21q0 33 1 48q4 24 20 68q7 15 20 31q23 27 51 37q25 13 66 13q50 0 110 -28l-30 -75 q-37 26 -74 26q-44 1 -70 -36q-4 -4 -11 -17.5t-6 -29.5l2 -22q14 -37 64 -37q44 0 123 39z"></glyph><glyph glyph-name="ydieresis" unicode="5" d="M569 37q0 -68 -49.5 -111t-118.5 -44q-67 -1 -114 34q-58 -34 -116 -36q-68 -1 -109 51q-38 47 -38 117q0 111 86 218l96 119l-34 23l56 68q341 -255 341 -439zM476 55q0 35 -24 79.5t-67 92.5q-46 50 -113 105q-156 -160 -156 -272q0 -37 19 -60.5t52 -23.5q37 0 55 29 q15 18 17 50l-5 33h87l5 -15l1 -19l-1 -33q0 -7 -8 -27q25 -16 57 -16q61 0 77 48q4 11 4 29z"></glyph><glyph glyph-name="Amacron" unicode="6" d="M476 237q-35 -31 -69 -72l-74 -91q-12 -14 -66 -95q-29 -42 -62 -100l-77 48q20 40 59 99q27 40 101 136q-83 0 -130 48q-41 44 -41 109q0 83 70 138q37 23 82 23q54 0 114 -31l-28 -79q-39 22 -72 22q-40 0 -68 -37q-10 -20 -10 -36t8 -34q17 -38 69 -38q27 0 57 11 q25 5 66 31z"></glyph><glyph glyph-name="amacron" unicode="7" d="M543 437q-55 -96 -71 -125q-40 -72 -65 -129q-36 -85 -77 -282h-70q-20 154 -74 282q-16 38 -54 108q-14 26 -38 68q-12 24 -43 77l77 40q37 -61 65 -118q35 -73 49 -109l50 -185l11 -2l11 59l16 54l23 73l17 45q10 24 27 55l71 128z"></glyph><glyph glyph-name="Abreve" unicode="8" d="M543 -55l-39 -19l-37 -20q-25 42 -69 122q-20 39 -45 104q-6 22 -50 187h-11q-27 -128 -50 -185l-14 -35q-28 -71 -101 -193l-38 20l-40 19q61 103 84 145q37 67 53 109l23 60l21 68q18 59 33 153l68 -1q18 -104 32 -154q19 -64 45 -127l21 -50l64 -121z"></glyph><glyph glyph-name="abreve" unicode="9" d="M458 -99h-88v302l-51 -13l-46 -4q-62 0 -98.5 34t-37.5 94q-1 91 67 139q17 13 38.5 20t43.5 7q21 0 45 -5q19 -7 48 -23q37 -20 61 -104q1 -13 7 -39q2 -13 5 -36q1 -13 5 -42q1 -17 1 -42v-288zM362 293q-2 14 -5 36q-2 9 -9 30q-8 25 -35 37l-28 6q-41 0 -61 -36 q-13 -24 -13 -41v-11q0 -6 5 -15q14 -36 56 -36q36 0 90 30z"></glyph><glyph glyph-name="Aogonek" unicode="‌" d="M15 554v-672h-30v672h30z"></glyph><glyph glyph-name="aogonek" unicode="‍" d="M15 -118h-30v597l-58 -59l-21 21l73 73l-73 72l21 21l73 -73l73 73l21 -21l-73 -72l73 -73l-21 -21l-58 59v-597z"></glyph><glyph glyph-name="Cacute" unicode="‎" d="M185 515l-93 -92l-22 21l59 56h-114v-618h-30v648h144l-59 56l22 21z"></glyph><glyph glyph-name="cacute" unicode="‏" d="M15 -118h-30v618h-115l59 -56l-21 -21l-93 92l93 92l21 -21l-59 -56h145v-648z"></glyph><glyph glyph-name="Ccircumflex" unicode="؟" d="M380 400h-91q0 113 -81 115q-38 1 -59 -25q-16 -19 -17 -43q-1 -25 11 -42l46 -50q17 -19 33 -40q8 -10 19 -32l12 -45l5 -64h-88q0 34 -5 49q-1 20 -11 37q-2 7 -13 19q-6 8 -31 33q-39 37 -52 57q-20 33 -21 74q-1 72 48.5 113t118.5 41q68 0 116 -37q42 -32 49 -70 l7 -38zM272 56q0 -21 -18.5 -38.5t-43.5 -17.5q-61 0 -61 56q0 51 61 52q61 2 62 -52z"></glyph><glyph glyph-name="ccircumflex" unicode="!" d="M165 391l-21 -211h-49l-22 211v203h92v-203zM189 62q0 -62 -69 -62q-67 0 -67 62q0 56 67 56q69 0 69 -56z"></glyph><glyph glyph-name="Cdot" unicode="." d="M214 61q0 -61 -69 -61q-68 0 -68 61q0 56 68 56q69 1 69 -56z"></glyph><glyph glyph-name="cdot" unicode="،" d="M201 57q1 -57 -67 -57t-68 57q0 102 6 127q18 74 97 79v-32q-35 -6 -52 -31q-12 -25 -12 -79q95 0 96 -64z"></glyph><glyph glyph-name="Ccaron" unicode="٫" d="M201 205q0 -102 -6 -126q-19 -74 -97 -79v32q35 5 51 31q12 25 12 78q-95 0 -95 64q-1 58 66 58q69 0 69 -58z"></glyph><glyph glyph-name="ccaron" unicode=":" d="M213 280q1 -61 -67 -61q-70 0 -70 61q0 57 70 57q67 0 67 -57zM214 62q1 -28 -18.5 -45t-48.5 -17q-45 0 -65 36q-1 5 -5 26q0 56 70 56q66 0 67 -56z"></glyph><glyph glyph-name="Dcaron" unicode="؛" d="M214 267q0 -57 -67 -58q-72 0 -72 58q0 96 7 124q17 66 97 80v-32q-31 -7 -51 -32q-10 -19 -13 -77q99 0 99 -63zM215 57q1 -57 -68 -57t-69 57q0 61 69 61q67 0 68 -61z"></glyph><glyph glyph-name="dcaron" unicode="/" d="M458 492l-303 -555h-129l306 555h126z"></glyph><glyph glyph-name="Dslash" unicode="+" d="M214 441h81v-137h137v-82h-137v-137h-81v137h-138v82h138v137z"></glyph><glyph glyph-name="dcroat" unicode="-" d="M76 304h356v-82h-356v82z"></glyph><glyph glyph-name="dcroat" unicode="‐" d="M76 304h356v-82h-356v82z"></glyph><glyph glyph-name="Emacron" unicode="×" d="M137 436l119 -117l114 114l58 -57l-115 -115l117 -117l-58 -57l-116 117l-120 -120l-57 57l120 120l-118 117z"></glyph><glyph glyph-name="emacron" unicode="÷" d="M206 162h97v-98h-97v98zM76 304h356v-82h-356v82zM206 462h97v-98h-97v98z"></glyph><glyph glyph-name="Ebreve" unicode="٪" d="M723 70q0 -52 -47 -96q-24 -22 -47 -30q-24 -13 -52 -13q-55 0 -103 42.5t-48 96.5q0 50 50 98.5t101 48.5q54 0 100 -46.5t46 -100.5zM582 524l-333 -606h-90l331 606h92zM331 383q0 -51 -50 -94q-26 -23 -48 -33t-51 -10q-52 0 -101 42q-12 14 -17 23q-11 10 -17 23 q-3 8 -10 25q-1 16 -1 24q0 54 46 99.5t100 47.5q51 1 100 -46t49 -101zM659 70q0 15 -6 29q-4 10 -21 28q-25 27 -55 27q-21 0 -45 -17.5t-36 -37.5q-6 -14 -6 -29q0 -33 27 -56.5t60 -23.5q26 0 53.5 24t28.5 56zM267 383q0 9 -7 31q-26 52 -78 53q-8 0 -30 -7 q-13 -5 -28 -20q-26 -24 -26 -57q0 -34 24.5 -56t59.5 -23q32 0 58.5 23.5t26.5 55.5z"></glyph><glyph glyph-name="ebreve" unicode="*" d="M320 634l-121 -71l-12 22l121 70zM187 585h-23v140h23v-140zM320 493l-11 -21l-122 69l12 22zM164 585l-13 -24l-121 70l12 23zM187 400h-23v141h23v-141zM164 541l-120 -70l-14 20l121 70z"></glyph><glyph glyph-name="ebreve" unicode="٭" d="M320 634l-121 -71l-12 22l121 70zM187 585h-23v140h23v-140zM320 493l-11 -21l-122 69l12 22zM164 585l-13 -24l-121 70l12 23zM187 400h-23v141h23v-141zM164 541l-120 -70l-14 20l121 70z"></glyph><glyph glyph-name="Edot" unicode="=" d="M571 193h-510v90h510v-90zM571 0h-510v91h510v-91z"></glyph><glyph glyph-name="edot" unicode="&lt;" d="M464 -99l-427 250v83l427 250v-96l-337 -196l337 -194v-97z"></glyph><glyph glyph-name="Eogonek" unicode="&gt;" d="M465 234l-1 -83l-428 -250l1 97l338 196l-339 194l1 96z"></glyph><glyph glyph-name="eogonek" unicode="(" d="M265 -6q2 -21 -22 -21q-17 0 -54 35q-111 107 -111 263q0 133 111 253q39 42 54 42q12 1 17.5 -5t4.5 -17q-13 -24 -36 -75q-33 -79 -34 -200q0 -120 34 -200z"></glyph><glyph glyph-name="Ecaron" unicode=")" d="M77 -6q-2 -21 23 -21q16 0 54 35q111 106 111 263q0 65 -33 136q-30 65 -78 117q-39 42 -54 42q-13 1 -18.5 -5t-4.5 -17q13 -24 37 -75q34 -80 34 -200t-34 -200q-2 -4 -37 -75z"></glyph><glyph glyph-name="glyph243" unicode="[" d="M59 -185v805h171v-64h-94v-676h94v-65h-171z"></glyph><glyph glyph-name="glyph244" unicode="]" d="M230 -185h-171v65h93v676h-93v64h171v-805z"></glyph><glyph glyph-name="ecaron" unicode="{" d="M23 263q67 2 81 64q7 30 8 102q-1 32 2 94q10 94 80 113q16 5 53 5h24v-68h-13q-48 0 -61 -18.5t-13 -69.5q0 -113 -5 -142q-13 -81 -85 -115q57 -24 77 -80q13 -38 13 -114q0 -84 2 -99q4 -33 22 -44q14 -9 50 -9h13v-67h-24q-42 0 -61 7q-58 21 -69 88q-2 70 -4 141 q-3 97 -37 124q-20 17 -53 18v70z"></glyph><glyph glyph-name="Gcircumflex" unicode="}" d="M271 263v-70q-67 -2 -81 -65q-8 -33 -8 -97q0 -77 -2 -98q-10 -93 -80 -113q-17 -5 -53 -5h-24v67h13q48 0 62 21q12 16 12 68q0 108 4 136q12 90 86 121q-58 27 -77 80q-13 36 -13 115.5t-2 98.5q-4 32 -22 43q-14 8 -50 8h-13v68h24q41 0 61 -7q58 -21 69 -88 q5 -32 4 -110q0 -71 9 -108q14 -63 81 -65z"></glyph><glyph glyph-name="gcircumflex" unicode="«" d="M341 -14q4 -6 0 -10q-4 -6 -10 -1q-43 17 -83 77t-40 128q0 69 40 130q34 54 81 74q5 2 10 -3q4 -4 0 -10q-19 -30 -46 -78q-22 -53 -22 -110q0 -61 25 -117q8 -24 45 -80zM185 -14q4 -6 0 -10q-2 -5 -6 -5q-2 1 -3 1q-46 20 -85 80.5t-39 127.5q0 68 40 129q38 56 82 73 q5 3 8 -1t0 -10q-66 -103 -66 -189q0 -62 24 -116q12 -28 45 -80z"></glyph><glyph glyph-name="Gbreve" unicode="»" d="M345 180q0 -65 -41 -129q-39 -60 -83 -79q-5 -2 -9 4q-3 4 0 10q20 33 47 80q24 56 24 116q0 83 -67 189q-2 1 -2 4q0 12 10 7q42 -15 81 -73q40 -61 40 -129zM189 180q1 -63 -40 -129q-36 -57 -83 -76q-5 -4 -10 1q-4 4 0 10q36 57 46 80q23 53 23 117q0 88 -66 188 q-4 6 0 10q4 5 9 3q48 -22 82 -74q38 -61 39 -130z"></glyph><glyph glyph-name="gbreve" unicode="‹" d="M132 226l114 -195h-64l-135 195l135 197h64z"></glyph><glyph glyph-name="Gdot" unicode="›" d="M163 228l-114 195h64l131 -193l-131 -199h-64z"></glyph><glyph glyph-name="gdot" unicode="“" d="M118 524v-90h-83v71q0 58 14 84q18 34 57 52l19 -30q-45 -19 -47 -87h40zM251 524v-90h-83v71q0 58 14 84q18 34 57 52l19 -30q-45 -19 -47 -87h40z"></glyph><glyph glyph-name="Gcedilla" unicode="”" d="M42 547v89h83v-71q0 -57 -13 -82q-19 -35 -58 -53l-19 31q45 18 47 86h-40zM175 547v89h83v-71q0 -57 -13 -82q-19 -35 -58 -53l-19 31q45 18 47 86h-40z"></glyph><glyph glyph-name="gcedilla" unicode="‘" d="M136 524v-90h-83v71q0 58 14 84q18 34 57 52l19 -30q-45 -19 -48 -87h41z"></glyph><glyph glyph-name="Hcircumflex" unicode="’" d="M60 547v89h83v-71q0 -57 -14 -82q-18 -35 -57 -53l-19 31q45 18 47 86h-40z"></glyph><glyph glyph-name="hcircumflex" unicode="•" d="M0 150q0 62 44 106t106 44t106 -44t44 -106t-44 -106t-106 -44t-106 44t-44 106z"></glyph></font>
</defs>
</svg>
