<?xml version="1.0" standalone="no"?>
<!DOCTYPE svg PUBLIC "-//W3C//DTD SVG 1.1//EN" "http://www.w3.org/Graphics/SVG/1.1/DTD/svg11.dtd" >
<svg>
<metadata>
Created by FontForge 20120731 at Tue Jun 25 08:50:31 2019
 By www-data
Copyright (c) 2014 by www.moslemebrahimi.com. All rights reserved.
</metadata>
<defs>
<font id="IRANSans-Bold" horiz-adv-x="0" >
  <font-face 
    font-family="IRAN Sans"
    font-weight="700"
    font-stretch="normal"
    units-per-em="2048"
    panose-1="2 11 4 0 0 0 0 0 0 0"
    ascent="1638"
    descent="-410"
    bbox="-234 -1069 2249 1982.26"
    underline-thickness="60"
    underline-position="-650"
    unicode-range="U+0020-FEFC"
  />
<missing-glyph horiz-adv-x="1024" 
d="M128 0v1343h768v-1343h-768zM256 128h512v1087h-512v-1087z" />
    <glyph glyph-name="uFC60" unicode="&#x651;&#x64e;" arabic-form="isolated" 
d="M448 1708l-303 -123l-38 94l303 123zM573 1540q42 -77 36 -148q-1 -12 -6.5 -29t-18 -34.5t-33.5 -33t-52 -24.5q-14 -5 -29 -5.5t-30 3.5t-29 10.5t-24 14.5q-8 -7 -17.5 -14.5t-22.5 -13t-30.5 -8.5t-39.5 -1q-3 0 -14.5 3t-26.5 10.5t-31.5 20.5t-28.5 35
q-38 70 9 174l94 -43q-6 -12 -11 -26.5t-6 -28.5t5 -25.5t22 -17.5q19 1 28 12.5t12.5 28.5t2.5 37.5t-1 40.5l101 14q2 -10 2 -30.5t3 -41t10.5 -35.5t24.5 -14q27 4 32.5 24t-2 46t-22 52.5t-27.5 41.5l78 68q2 -2 15 -19t27 -44z" />
    <glyph glyph-name="uFC61" unicode="&#x651;&#x64f;" arabic-form="isolated" 
d="M489 1456q42 -77 36 -148q-1 -12 -6.5 -29t-18 -34.5t-33.5 -33t-52 -24.5q-14 -5 -29 -5.5t-30 3.5t-29 10.5t-24 14.5q-8 -7 -17.5 -14.5t-22.5 -13t-30.5 -8.5t-39.5 -1q-3 0 -14.5 3t-26.5 10.5t-31.5 20.5t-28.5 35q-38 70 9 174l94 -43q-6 -12 -11 -26.5t-6 -28.5
t5 -25.5t22 -17.5q19 1 28 12.5t12.5 28.5t2.5 37.5t-1 40.5l101 14q2 -10 2 -30.5t3 -41t10.5 -35.5t24.5 -14q27 4 32.5 24t-2 46t-22 52.5t-27.5 41.5l78 68q2 -2 15 -19t27 -44zM375 1955q45 -15 69.5 -46t30.5 -69t-4.5 -80t-34.5 -79q-20 -30 -59 -59.5t-85.5 -53
t-94.5 -39t-85 -16.5v103q18 0 51.5 10.5t79.5 33.5q34 18 60 36q-23 8 -44.5 22t-37.5 34q-32 39 -29.5 81.5t27 75t66.5 47.5t90 -1zM373 1781q4 12 4.5 26.5t-2.5 25.5q-6 17 -26 25.5t-38 -1.5q-13 -6 -13.5 -23t10.5 -29q10 -13 27.5 -16t37.5 -8z" />
    <glyph glyph-name="uE818" unicode="&#x651;&#x64b;" 
 />
    <glyph glyph-name="uFC5E" unicode="&#x651;&#x64c;" arabic-form="isolated" 
d="M554 1572q42 -77 36 -148q-1 -12 -6.5 -29t-18 -34.5t-33.5 -33t-52 -24.5q-14 -5 -29 -5.5t-30 3.5t-29 10.5t-24 14.5q-8 -7 -17.5 -14.5t-22.5 -13t-30.5 -8.5t-39.5 -1q-3 0 -14.5 3t-26.5 10.5t-31.5 20.5t-28.5 35q-38 70 9 174l94 -43q-6 -12 -11 -26.5t-6 -28.5
t5 -25.5t22 -17.5q19 1 28 12.5t12.5 28.5t2.5 37.5t-1 40.5l101 14q2 -10 2 -30.5t3 -41t10.5 -35.5t24.5 -14q27 4 32.5 24t-2 46t-22 52.5t-27.5 41.5l78 68q2 -2 15 -19t27 -44zM344 1974q45 -15 69.5 -46t30.5 -69t-4.5 -80t-34.5 -79q-20 -30 -55.5 -58.5t-78.5 -50
t-88 -35.5t-82 -15v1q-1 -1 -2 -1h-1l-24 91q2 0 7 3h1q10 4 23 14t10 28q-2 7 -6.5 15.5t-21.5 15.5q-7 3 -12.5 4.5t-10.5 2.5t-11 2l4 94q3 0 22 -2.5t43 -12.5q35 -15 57.5 -42t28.5 -62q0 -4 0.5 -7.5t0.5 -7.5l3 2q34 18 60 36q-23 8 -44.5 22t-37.5 34
q-32 39 -29.5 81.5t27 75t66.5 47.5t90 -1zM342 1800q4 12 4.5 26.5t-2.5 25.5q-6 17 -26 25.5t-38 -1.5q-13 -6 -13.5 -23t10.5 -29q10 -13 27.5 -16t37.5 -8z" />
    <glyph glyph-name="uFC62" unicode="&#x651;&#x650;" arabic-form="isolated" 
d="M486 1712q42 -77 36 -148q-1 -12 -6.5 -29t-18 -34.5t-33.5 -33t-52 -24.5q-14 -5 -29 -5.5t-30 3.5t-29 10.5t-24 14.5q-8 -7 -17.5 -14.5t-22.5 -13t-30.5 -8.5t-39.5 -1q-3 0 -14.5 3t-26.5 10.5t-31.5 20.5t-28.5 35q-38 70 9 174l94 -43q-6 -12 -11 -26.5t-6 -28.5
t5 -25.5t22 -17.5q19 1 28 12.5t12.5 28.5t2.5 37.5t-1 40.5l101 14q2 -10 2 -30.5t3 -41t10.5 -35.5t24.5 -14q27 4 32.5 24t-2 46t-22 52.5t-27.5 41.5l78 68q2 -2 15 -19t27 -44zM514 1265l-303 -123l-38 94l303 123z" />
    <glyph glyph-name="uFC5F" unicode="&#x651;&#x64d;" arabic-form="isolated" 
 />
    <glyph glyph-name="uFEF5" unicode="&#xfedf;&#xfe82;" horiz-adv-x="923" arabic-form="isolated" 
d="M530 1242q-20 -14 -57.5 -35t-98.5 -32q-65 -13 -143 -8t-175 28q-5 1 -14.5 2t-22.5 -4.5t-29.5 -21.5t-34.5 -47l-147 49q72 124 178 160q70 25 147 7q81 -19 134.5 -22.5t88 1.5t54 15.5t31.5 19.5zM881 401q7 -90 -25 -168t-98 -139q-50 -45 -118 -78t-148 -52
q-83 -18 -166 -18q-55 0 -144 16l36 206q35 -7 62 -10t47 -3q23 0 43.5 1.5t43.5 5.5q-19 82 -55 172.5t-79 178.5t-88 168t-82.5 141t-61.5 98t-25 38l183 131q0 -1 16 -28.5t42 -73.5t60 -106.5t70 -128.5t71.5 -140t65 -139.5t50.5 -127.5t28 -104l8 7q32 29 45 62.5
t10 75.5q-8 90 -16 190t-16.5 202t-17 202t-15.5 190l203 20q0 -1 4 -38t10.5 -98t14.5 -140.5t15.5 -167t14.5 -176.5t12 -169z" />
    <glyph glyph-name="uFEF6" unicode="&#xfee0;&#xfe82;" horiz-adv-x="958" arabic-form="final" 
d="M488 1268q-20 -14 -57.5 -35t-98.5 -32q-65 -13 -143 -8t-175 28q-5 1 -14.5 2t-22.5 -4.5t-29.5 -21.5t-34.5 -47l-147 49q72 124 178 160q70 25 147 7q81 -19 134.5 -22.5t88 1.5t54 15.5t31.5 19.5zM874 230q17 -11 35 -16t32 -5h18q22 0 41 -8.5t33 -22.5t22.5 -33
t8.5 -41t-8.5 -41t-22.5 -33t-33 -22t-41 -8h-35q-3 0 -16.5 1.5t-33.5 6t-45 13.5t-52 23q-22 12 -37.5 26t-28.5 31l-7 -6q-50 -45 -117.5 -78.5t-148.5 -51.5q-83 -18 -166 -18q-55 0 -144 16l36 206q35 -7 62 -10t47 -3q23 0 43.5 1.5t43.5 5.5q-19 82 -55 172
t-78.5 177t-87 166.5t-81 140t-60 97t-24.5 37.5l179 134q36 -63 89 -155t110 -203t111 -235.5t92 -251.5l8 7q61 56 55 136q-8 115 -16.5 228.5t-18 215.5t-18.5 187.5t-16 144.5l208 21q0 -2 4.5 -43.5t11 -110t15 -156.5t17 -182.5t15.5 -188.5t12 -174q2 -33 10.5 -57.5
t31.5 -39.5z" />
    <glyph glyph-name="uFEF7" unicode="&#xfedf;&#xfe84;" horiz-adv-x="938" arabic-form="isolated" 
d="M356 1336l34 -119q-17 -5 -33 -9l-32 -8q-31 -9 -72.5 -21.5t-86.5 -27t-90.5 -30.5t-84.5 -33l-47 114q23 9 46.5 18t48.5 18q-44 42 -53 110q-9 70 36 127q16 20 36.5 34.5t42.5 24.5t44 15.5t40 7.5q38 4 69.5 -3.5t55 -18.5t37.5 -22t17 -14l-84 -90q1 0 1 -1
q0 1 -6.5 5.5t-18 10t-26.5 9t-33 2.5q-23 -2 -45.5 -12.5t-33.5 -25.5q-12 -14 -10 -34q3 -19 9.5 -27.5t14.5 -13.5q5 -4 16.5 -8t30.5 -6t47 -0.5t66 10.5q28 8 45 12.5t19 5.5zM881 401q7 -90 -25 -168t-98 -139q-50 -45 -118 -78t-148 -52q-83 -18 -166 -18
q-55 0 -144 16l36 206q35 -7 62 -10t47 -3q23 0 43.5 1.5t43.5 5.5q-19 82 -55 172.5t-79 178.5t-88 168t-82.5 141t-61.5 98t-25 38l183 131q0 -1 16 -28.5t42 -73.5t60 -106.5t70 -128.5t71.5 -140t65 -139.5t50.5 -127.5t28 -104l8 7q32 29 45 62.5t10 75.5
q-8 90 -16 190t-16.5 202t-17 202t-15.5 190l203 20q0 -1 4 -38t10.5 -98t14.5 -140.5t15.5 -167t14.5 -176.5t12 -169z" />
    <glyph glyph-name="uFEF8" unicode="&#xfee0;&#xfe84;" horiz-adv-x="959" arabic-form="final" 
d="M297 1221q-17 -5 -33 -9l-32 -8q-31 -9 -72.5 -21.5t-86.5 -27t-90.5 -30.5t-84.5 -33l-47 114q23 9 46.5 18t48.5 18q-44 42 -53 110q-9 70 36 127q16 20 36.5 34.5t42.5 24.5t44 15.5t40 7.5q38 4 69.5 -3.5t55 -18.5t37.5 -22t17 -14l-84 -90q1 0 1 -1q0 1 -6.5 5.5
t-18 10t-26.5 9t-33 2.5q-23 -2 -45.5 -12.5t-33.5 -25.5q-12 -14 -10 -34q3 -19 9.5 -27.5t14.5 -13.5q5 -4 16.5 -8t30.5 -6t47 -0.5t66 10.5q28 8 45 12.5t19 5.5zM874 230q17 -11 35 -16t32 -5h18q22 0 41 -8.5t33 -22.5t22.5 -33t8.5 -41t-8.5 -41t-22.5 -33t-33 -22
t-41 -8h-35q-3 0 -16.5 1.5t-33.5 6t-45 13.5t-52 23q-22 12 -37.5 26t-28.5 31l-7 -6q-50 -45 -117.5 -78.5t-148.5 -51.5q-83 -18 -166 -18q-55 0 -144 16l36 206q35 -7 62 -10t47 -3q23 0 43.5 1.5t43.5 5.5q-19 82 -55 172t-78.5 177t-87 166.5t-81 140t-60 97
t-24.5 37.5l179 134q36 -63 89 -155t110 -203t111 -235.5t92 -251.5l8 7q61 56 55 136q-8 115 -16.5 228.5t-18 215.5t-18.5 187.5t-16 144.5l208 21q0 -2 4.5 -43.5t11 -110t15 -156.5t17 -182.5t15.5 -188.5t12 -174q2 -33 10.5 -57.5t31.5 -39.5z" />
    <glyph glyph-name="uFEF9" unicode="&#xfedf;&#xfe88;" horiz-adv-x="933" arabic-form="isolated" 
d="M523 -448q-17 -5 -33 -9l-32 -8q-31 -9 -72.5 -21.5t-86.5 -27t-90.5 -30.5t-84.5 -33l-47 114q23 9 46.5 18t48.5 18q-44 42 -53 110q-9 70 36 127q16 20 36.5 34.5t42.5 24.5t44 15.5t40 7.5q38 4 69.5 -3.5t55 -18.5t37.5 -22t17 -14l-84 -90q1 0 1 -1q0 1 -6.5 5.5
t-18 10t-26.5 9t-33 2.5q-23 -2 -45.5 -12.5t-33.5 -25.5q-12 -14 -10 -34q3 -19 9.5 -27.5t14.5 -13.5q5 -4 16.5 -8t30.5 -6t47 -0.5t66 10.5q28 8 45 12.5t19 5.5zM881 401q7 -90 -25 -168t-98 -139q-50 -45 -118 -78t-148 -52q-83 -18 -166 -18q-55 0 -144 16l36 206
q35 -7 62 -10t47 -3q23 0 43.5 1.5t43.5 5.5q-19 82 -55 172.5t-79 178.5t-88 168t-82.5 141t-61.5 98t-25 38l183 131q0 -1 16 -28.5t42 -73.5t60 -106.5t70 -128.5t71.5 -140t65 -139.5t50.5 -127.5t28 -104l8 7q32 29 45 62.5t10 75.5q-8 90 -16 190t-16.5 202t-17 202
t-15.5 190l203 20q0 -1 4 -38t10.5 -98t14.5 -140.5t15.5 -167t14.5 -176.5t12 -169z" />
    <glyph glyph-name="uFEFA" unicode="&#xfee0;&#xfe88;" horiz-adv-x="958" arabic-form="final" 
d="M523 -448q-17 -5 -33 -9l-32 -8q-31 -9 -72.5 -21.5t-86.5 -27t-90.5 -30.5t-84.5 -33l-47 114q23 9 46.5 18t48.5 18q-44 42 -53 110q-9 70 36 127q16 20 36.5 34.5t42.5 24.5t44 15.5t40 7.5q38 4 69.5 -3.5t55 -18.5t37.5 -22t17 -14l-84 -90q1 0 1 -1q0 1 -6.5 5.5
t-18 10t-26.5 9t-33 2.5q-23 -2 -45.5 -12.5t-33.5 -25.5q-12 -14 -10 -34q3 -19 9.5 -27.5t14.5 -13.5q5 -4 16.5 -8t30.5 -6t47 -0.5t66 10.5q28 8 45 12.5t19 5.5zM874 230q17 -11 35 -16t32 -5h18q22 0 41 -8.5t33 -22.5t22.5 -33t8.5 -41t-8.5 -41t-22.5 -33t-33 -22
t-41 -8h-35q-3 0 -16.5 1.5t-33.5 6t-45 13.5t-52 23q-22 12 -37.5 26t-28.5 31l-7 -6q-50 -45 -117.5 -78.5t-148.5 -51.5q-83 -18 -166 -18q-55 0 -144 16l36 206q35 -7 62 -10t47 -3q23 0 43.5 1.5t43.5 5.5q-19 82 -55 172t-78.5 177t-87 166.5t-81 140t-60 97
t-24.5 37.5l179 134q36 -63 89 -155t110 -203t111 -235.5t92 -251.5l8 7q61 56 55 136q-8 115 -16.5 228.5t-18 215.5t-18.5 187.5t-16 144.5l208 21q0 -2 4.5 -43.5t11 -110t15 -156.5t17 -182.5t15.5 -188.5t12 -174q2 -33 10.5 -57.5t31.5 -39.5z" />
    <glyph glyph-name="uFEFB" unicode="&#xfedf;&#xfe8e;" horiz-adv-x="927" arabic-form="isolated" 
d="M881 401q7 -90 -25 -168t-98 -139q-50 -45 -118 -78t-148 -52q-83 -18 -166 -18q-55 0 -144 16l36 206q35 -7 62 -10t47 -3q23 0 43.5 1.5t43.5 5.5q-19 82 -55 172.5t-79 178.5t-88 168t-82.5 141t-61.5 98t-25 38l183 131q0 -1 16 -28.5t42 -73.5t60 -106.5t70 -128.5
t71.5 -140t65 -139.5t50.5 -127.5t28 -104l8 7q32 29 45 62.5t10 75.5q-8 90 -16 190t-16.5 202t-17 202t-15.5 190l203 20q0 -1 4 -38t10.5 -98t14.5 -140.5t15.5 -167t14.5 -176.5t12 -169z" />
    <glyph glyph-name="uFEFC" unicode="&#xfee0;&#xfe8e;" horiz-adv-x="958" arabic-form="final" 
d="M874 230q17 -11 35 -16t32 -5h18q22 0 41 -8.5t33 -22.5t22.5 -33t8.5 -41t-8.5 -41t-22.5 -33t-33 -22t-41 -8h-35q-3 0 -16.5 1.5t-33.5 6t-45 13.5t-52 23q-22 12 -37.5 26t-28.5 31l-7 -6q-50 -45 -117.5 -78.5t-148.5 -51.5q-83 -18 -166 -18q-55 0 -144 16l36 206
q35 -7 62 -10t47 -3q23 0 43.5 1.5t43.5 5.5q-19 82 -55 172t-78.5 177t-87 166.5t-81 140t-60 97t-24.5 37.5l179 134q36 -63 89 -155t110 -203t111 -235.5t92 -251.5l8 7q61 56 55 136q-8 115 -16.5 228.5t-18 215.5t-18.5 187.5t-16 144.5l208 21q0 -2 4.5 -43.5t11 -110
t15 -156.5t17 -182.5t15.5 -188.5t12 -174q2 -33 10.5 -57.5t31.5 -39.5z" />
    <glyph glyph-name="uFDF2" unicode="&#xfedf;&#xfee0;&#xfeea;" horiz-adv-x="1520" arabic-form="isolated" 
d="M1387 673q23 -154 30 -259.5t-4 -168.5q-2 -12 -6.5 -29t-12 -36.5t-19.5 -40.5t-30 -42q-39 -47 -92 -71t-117 -24q-98 0 -169 37q-23 13 -43.5 29t-37.5 36q-22 -22 -42.5 -41t-44.5 -32.5t-53.5 -21t-68.5 -7.5q-19 0 -43.5 1.5t-51 8.5t-53.5 21t-51 38
q-12 12 -22.5 25.5t-18.5 29.5q-64 -15 -135 -9.5t-130.5 33t-99 80t-40.5 132.5q-1 44 15 81t43.5 68.5t63.5 57.5t75.5 47t80 37.5t76.5 28.5l-3 76l202 49l21 -515q1 -29 5 -44t9 -22.5t9.5 -9.5t7.5 -5q4 -4 17 -6t27 -2.5t25 0t11 2.5q29 11 46.5 44t26 82.5t10 111
t-0.5 129.5t-6.5 138t-7.5 136l204 41q0 -1 1 -10.5t3 -34t5 -67t7.5 -110t10.5 -163t14 -225.5q1 -20 11.5 -33.5t25.5 -21.5t33.5 -11.5t35.5 -3.5q21 0 34.5 7.5t22 18t12.5 23t6 22.5q4 28 3 73t-5.5 99t-13 114.5t-18 120t-19.5 115.5t-20 101l200 42q0 -2 5 -24
t12 -59t15.5 -85t16.5 -102zM237 364q0 -23 20.5 -32t47.5 -10.5t54 1.5t41 5l-6 139q-18 -9 -41 -19t-45.5 -22t-41.5 -27.5t-29 -34.5zM847 1566q4 -6 8.5 -24.5t9.5 -43t9.5 -51.5t7.5 -49.5t4 -37.5t-1 -16l-59 -25q-4 36 -8.5 65.5t-10 56t-13 52t-16.5 54.5q2 0 10 2
q11 2 59 17zM1058 1302q42 -77 36 -148q-1 -12 -6.5 -29t-18 -34.5t-33.5 -33t-52 -24.5q-14 -5 -29 -5.5t-30 3.5t-29 10.5t-24 14.5q-8 -7 -17.5 -14.5t-22.5 -13t-30.5 -8.5t-39.5 -1q-3 0 -14.5 3t-26.5 10.5t-31.5 20.5t-28.5 35q-38 70 9 174l94 -43q-6 -12 -11 -26.5
t-6 -28.5t5 -25.5t22 -17.5q19 1 28 12.5t12.5 28.5t2.5 37.5t-1 40.5l101 14q2 -10 2 -30.5t3 -41t10.5 -35.5t24.5 -14q27 4 32.5 24t-2 46t-22 52.5t-27.5 41.5l78 68q2 -2 15 -19t27 -44z" />
    <glyph glyph-name="u0622" unicode="&#x622;" horiz-adv-x="763" arabic-form="isolated" 
d="M246 1138l198 54q1 -6 6.5 -30.5t10.5 -76.5t9.5 -137t4.5 -211.5t-6.5 -299.5t-21.5 -402l-213 -35q22 343 29 569t3 341q-2 63 -5.5 107t-7 71t-6 39l-2.5 12zM632 1558l89 -112q-20 -14 -57.5 -35t-98.5 -32q-65 -13 -143 -8t-175 28q-5 1 -14.5 2t-22.5 -4.5
t-29.5 -21.5t-34.5 -47l-147 49q72 124 178 160q70 25 147 7q81 -19 134.5 -22.5t88 1.5t54 15.5t31.5 19.5z" />
    <glyph glyph-name="Hcircumflex" unicode="&#x622;" horiz-adv-x="599" arabic-form="final" 
d="M385 419q0 -49 6.5 -88t29 -66t65.5 -41.5t117 -14.5v-209q-124 0 -214.5 36.5t-141.5 111.5q-22 32 -35 66t-20 69t-9 69.5t-2 66.5v763h204v-763zM721 1446q-20 -14 -57.5 -35t-98.5 -32q-65 -13 -143 -8t-175 28q-5 1 -14.5 2t-22.5 -4.5t-29.5 -21.5t-34.5 -47
l-147 49q72 124 178 160q70 25 147 7q81 -19 134.5 -22.5t88 1.5t54 15.5t31.5 19.5z" />
    <glyph glyph-name="u0623" unicode="&#x623;" horiz-adv-x="477" arabic-form="isolated" 
d="M314 1180q2 -6 7 -30t10.5 -75t9.5 -134.5t4 -208.5t-6.5 -297.5t-21.5 -401.5l-204 -31q11 171 17 311t8.5 251t1.5 194t-3 140q-3 63 -6.5 106.5t-6.5 70.5t-5.5 39.5l-2.5 12.5v-1zM438 1427q-17 -5 -33 -9l-32 -8q-31 -9 -72.5 -21.5t-86.5 -27t-90.5 -30.5
t-84.5 -33l-47 114q23 9 46.5 18t48.5 18q-44 42 -53 110q-9 70 36 127q16 20 36.5 34.5t42.5 24.5t44 15.5t40 7.5q38 4 69.5 -3.5t55 -18.5t37.5 -22t17 -14l-84 -90q1 0 1 -1q0 1 -6.5 5.5t-18 10t-26.5 9t-33 2.5q-23 -2 -45.5 -12.5t-33.5 -25.5q-12 -14 -10 -34
q3 -19 9.5 -27.5t14.5 -13.5q5 -4 16.5 -8t30.5 -6t47 -0.5t66 10.5q28 8 45 12.5t19 5.5z" />
    <glyph glyph-name="uFE84" unicode="&#x623;" horiz-adv-x="596" arabic-form="final" 
d="M385 419q0 -49 6.5 -88t29 -66t65.5 -41.5t117 -14.5v-209q-124 0 -214.5 36.5t-141.5 111.5q-22 32 -35 66t-20 69t-9 69.5t-2 66.5v763h204v-763zM443 1439q-17 -5 -33 -9l-32 -8q-31 -9 -72.5 -21.5t-86.5 -27t-90.5 -30.5t-84.5 -33l-47 114q23 9 46.5 18t48.5 18
q-44 42 -53 110q-9 70 36 127q16 20 36.5 34.5t42.5 24.5t44 15.5t40 7.5q38 4 69.5 -3.5t55 -18.5t37.5 -22t17 -14l-84 -90q1 0 1 -1q0 1 -6.5 5.5t-18 10t-26.5 9t-33 2.5q-23 -2 -45.5 -12.5t-33.5 -25.5q-12 -14 -10 -34q3 -19 9.5 -27.5t14.5 -13.5q5 -4 16.5 -8
t30.5 -6t47 -0.5t66 10.5q28 8 45 12.5t19 5.5z" />
    <glyph glyph-name="u0624" unicode="&#x624;" horiz-adv-x="824" arabic-form="isolated" 
d="M643 945q-17 -5 -33 -10t-32 -9q-31 -9 -72.5 -21.5t-86.5 -27t-90.5 -30.5t-84.5 -33l-47 114q23 9 46.5 18t48.5 18q-44 42 -53 110q-9 70 36 127q16 20 36.5 34.5t42.5 24.5t44 15.5t40 7.5q38 4 69.5 -3.5t55 -18.5t37.5 -22t17 -14l-84 -90q1 0 1 -1q0 1 -6.5 5.5
t-18 10t-26.5 9t-33 2.5q-23 -2 -45.5 -12.5t-33.5 -25.5q-12 -14 -10 -34q3 -19 9.5 -27.5t14.5 -13.5q5 -4 16.5 -8t30.5 -6t47 -0.5t66 10.5q28 8 45 12.5t19 5.5zM720 526q22 -44 35.5 -91t21 -94.5t10.5 -92t3 -81.5q0 -166 -82 -299.5t-241 -228.5q-57 -33 -106.5 -55
t-87 -35.5t-60 -19t-24.5 -5.5l-66 196v-1l21.5 5.5t56 16.5t78.5 29.5t89 45.5q126 77 179 182h-16q-103 1 -177 19t-124 53q-29 20 -57 50t-47.5 71t-26.5 94t6 120q12 60 38 113t63 94q95 104 228 104q93 0 166 -48.5t120 -141.5zM533 209h27.5t25.5 1q-2 72 -14.5 127.5
t-33.5 98.5q-13 26 -26.5 41.5t-27 23.5t-26.5 10.5t-24 2.5q-26 0 -47.5 -11.5t-38 -31t-27.5 -44.5t-16 -52q-6 -27 -5 -47.5t7 -35.5t16.5 -26.5t24.5 -21.5q4 -3 15.5 -8.5t33 -11t55 -10t81.5 -5.5z" />
    <glyph glyph-name="uFE86" unicode="&#x624;" horiz-adv-x="774" arabic-form="final" 
d="M566 936q-17 -5 -33 -10t-32 -9q-31 -9 -72.5 -21.5t-86.5 -27t-90.5 -30.5t-84.5 -33l-47 114q23 9 46.5 18t48.5 18q-44 42 -53 110q-9 70 36 127q16 20 36.5 34.5t42.5 24.5t44 15.5t40 7.5q38 4 69.5 -3.5t55 -18.5t37.5 -22t17 -14l-84 -90q1 0 1 -1q0 1 -6.5 5.5
t-18 10t-26.5 9t-33 2.5q-23 -2 -45.5 -12.5t-33.5 -25.5q-12 -14 -10 -34q3 -19 9.5 -27.5t14.5 -13.5q5 -4 16.5 -8t30.5 -6t47 -0.5t66 10.5q28 8 45 12.5t19 5.5zM516 209q1 50 -4 88.5t-14 67t-20 49t-23 34.5q-30 37 -62 46.5t-61.5 -0.5t-53.5 -35t-37 -57.5t-13 -69
t18 -68.5q14 -24 59.5 -38t111.5 -16q19 -1 44.5 -1h54.5zM351 705h13.5t14.5 -1q69 -6 129 -38.5t105 -87.5q63 -77 91 -193q9 -41 13.5 -83.5t3.5 -92.5h62v-209h-89q-35 -118 -115 -215t-204 -169q-54 -31 -105 -52t-90.5 -34t-64.5 -18.5t-27 -5.5l-64 195l23.5 5.5
t60 17t81.5 29.5t88 43q141 82 198 203q-18 0 -34 0.5t-30 0.5q-101 3 -179 29q-111 40 -162 126q-24 40 -34.5 90.5t-7.5 103.5t19.5 106t45.5 100q46 72 113 111t145 39z" />
    <glyph glyph-name="u0625" unicode="&#x625;" horiz-adv-x="452" arabic-form="isolated" 
d="M314 1180q2 -6 7 -30t10.5 -75t9.5 -134.5t4 -208.5t-6.5 -297.5t-21.5 -401.5l-204 -31q11 171 17 311t8.5 251t1.5 194t-3 140q-3 63 -6.5 106.5t-6.5 70.5t-5.5 39.5l-2.5 12.5v-1zM461 -471q-17 -5 -33 -9l-32 -8q-31 -9 -72.5 -21.5t-86.5 -27t-90.5 -30.5
t-84.5 -33l-47 114q23 9 46.5 18t48.5 18q-44 42 -53 110q-9 70 36 127q16 20 36.5 34.5t42.5 24.5t44 15.5t40 7.5q38 4 69.5 -3.5t55 -18.5t37.5 -22t17 -14l-84 -90q1 0 1 -1q0 1 -6.5 5.5t-18 10t-26.5 9t-33 2.5q-23 -2 -45.5 -12.5t-33.5 -25.5q-12 -14 -10 -34
q3 -19 9.5 -27.5t14.5 -13.5q5 -4 16.5 -8t30.5 -6t47 -0.5t66 10.5q28 8 45 12.5t19 5.5z" />
    <glyph glyph-name="uFE88" unicode="&#x625;" horiz-adv-x="599" arabic-form="final" 
d="M385 419q0 -49 6.5 -88t29 -66t65.5 -41.5t117 -14.5v-209q-124 0 -214.5 36.5t-141.5 111.5q-22 32 -35 66t-20 69t-9 69.5t-2 66.5v763h204v-763zM554 -479q-17 -5 -33 -10t-32 -9q-31 -9 -72.5 -21.5t-86.5 -27t-90.5 -30.5t-84.5 -33l-47 114q23 9 46.5 18t48.5 18
q-44 42 -53 110q-9 70 36 127q16 20 36.5 34.5t42.5 24.5t44 15.5t40 7.5q38 4 69.5 -3.5t55 -18.5t37.5 -22t17 -14l-84 -90q1 0 1 -1q0 1 -6.5 5.5t-18 10t-26.5 9t-33 2.5q-23 -2 -45.5 -12.5t-33.5 -25.5q-12 -14 -10 -34q3 -19 9.5 -27.5t14.5 -13.5q5 -4 16.5 -8
t30.5 -6t47 -0.5t66 10.5q28 8 45 12.5t19 5.5z" />
    <glyph glyph-name="u0626" unicode="&#x626;" horiz-adv-x="1301" arabic-form="isolated" 
d="M1252 518q-75 16 -132.5 13.5t-100 -18t-72 -40.5t-49 -53t-30 -55.5t-15.5 -48.5q-5 -22 -5 -33.5t1 -15.5q2 -5 6 -8q14 -12 44.5 -22t61.5 -18q42 -11 86.5 -25.5t83.5 -41.5q54 -37 81 -90.5t25 -122.5q-3 -122 -85 -213q-63 -69 -170 -114q-49 -20 -99 -33t-94 -20
t-79.5 -10t-56.5 -4h-37q-184 0 -310 66q-89 46 -148 125q-62 83 -85 202q-12 65 -10 144.5t19 166.5q6 32 16 70.5t24.5 81.5t34.5 87.5t47 88.5l175 -107q-35 -58 -59 -125.5t-37 -135t-15 -128.5t6 -105q7 -38 25 -79.5t58.5 -75.5t109.5 -54.5t179 -16.5q13 0 40 2.5
t62.5 8t75.5 15t79 25.5q48 20 74 41t38 40.5t14.5 36t2.5 25.5q0 12 -1.5 21t-13 17t-37 17.5t-71.5 21.5q-48 13 -97.5 30t-90.5 52q-18 16 -35.5 39t-28.5 55t-13 73.5t10 93.5q6 25 18 59.5t33 72.5t52.5 76.5t76.5 71.5q85 64 198 84q121 21 264 -10zM706 800
q-17 -5 -33 -10t-32 -9q-31 -9 -72.5 -21.5t-86.5 -27t-90.5 -30.5t-84.5 -33l-47 114q23 9 46.5 18t48.5 18q-44 42 -53 110q-9 70 36 127q16 20 36.5 34.5t42.5 24.5t44 15.5t40 7.5q38 4 69.5 -3.5t55 -18.5t37.5 -22t17 -14l-84 -90q1 0 1 -1q0 1 -6.5 5.5t-18 10
t-26.5 9t-33 2.5q-23 -2 -45.5 -12.5t-33.5 -25.5q-12 -14 -10 -34q3 -19 9.5 -27.5t14.5 -13.5q5 -4 16.5 -8t30.5 -6t47 -0.5t66 10.5q28 8 45 12.5t19 5.5z" />
    <glyph glyph-name="uFE8A" unicode="&#x626;" horiz-adv-x="1299" arabic-form="final" 
d="M1303 0h-91q26 -40 32 -80q3 -18 3.5 -47.5t-6.5 -66.5t-25 -77.5t-54 -79.5q-75 -84 -209 -123q-114 -34 -276 -34q-20 0 -40.5 0.5t-41.5 1.5q-138 8 -248 61q-129 64 -202 180q-88 143 -79 344q8 209 124 478l188 -81q-50 -117 -77 -218.5t-31 -187.5q-6 -138 49 -227
q27 -44 64.5 -71.5t77.5 -43t78 -22t66 -7.5q102 -5 173.5 2.5t118.5 21.5t74 31.5t40 31.5q12 14 19 28.5t10 28t3 25t-1 18.5q-2 3 -10 12t-28.5 23t-55 32.5t-88.5 41.5q-42 17 -79 29t-63 20q-13 3 -24.5 6.5t-22.5 7.5l61 195q49 -15 114 -23.5t139.5 -12.5t155.5 -5.5
t162 -2.5v-209zM901 526q-17 -5 -33 -10t-32 -9q-31 -9 -72.5 -21.5t-86.5 -27t-90.5 -30.5t-84.5 -33l-47 114q23 9 46.5 18t48.5 18q-44 42 -53 110q-9 70 36 127q16 20 36.5 34.5t42.5 24.5t44 15.5t40 7.5q38 4 69.5 -3.5t55 -18.5t37.5 -22t17 -14l-84 -90q1 0 1 -1
q0 1 -6.5 5.5t-18 10t-26.5 9t-33 2.5q-23 -2 -45.5 -12.5t-33.5 -25.5q-12 -14 -10 -34q3 -19 9.5 -27.5t14.5 -13.5q5 -4 16.5 -8t30.5 -6t47 -0.5t66 10.5q28 8 45 12.5t19 5.5z" />
    <glyph glyph-name="uFE8B" unicode="&#x626;" horiz-adv-x="507" arabic-form="initial" 
d="M462 930q-17 -5 -33 -10t-32 -9q-31 -9 -72.5 -21.5t-86.5 -27t-90.5 -30.5t-84.5 -33l-47 114q23 9 46.5 18t48.5 18q-44 42 -53 110q-9 70 36 127q16 20 36.5 34.5t42.5 24.5t44 15.5t40 7.5q38 4 69.5 -3.5t55 -18.5t37.5 -22t17 -14l-84 -90q1 0 1 -1q0 1 -6.5 5.5
t-18 10t-26.5 9t-33 2.5q-23 -2 -45.5 -12.5t-33.5 -25.5q-12 -14 -10 -34q3 -19 9.5 -27.5t14.5 -13.5q5 -4 16.5 -8t30.5 -6t47 -0.5t66 10.5q28 8 45 12.5t19 5.5zM-104 105q0 21 8 40t22.5 33.5t33.5 22.5t40 8q83 0 132.5 7t76 17t36.5 20t13 16q2 3 3.5 13t0.5 27.5
t-6.5 42.5t-17.5 59q-9 28 -20.5 54t-23 47.5t-21.5 38t-17 25.5l159 128q15 -18 31 -44t31.5 -56t29.5 -62.5t25 -63.5q35 -100 36 -178t-33 -134q-37 -62 -86.5 -95.5t-106 -49t-117.5 -18.5t-121 -3h-4q-21 0 -40 8.5t-33.5 22.5t-22.5 33.5t-8 40.5z" />
    <glyph glyph-name="uFE8C" unicode="&#x626;" horiz-adv-x="553" arabic-form="medial" 
d="M476 908q-17 -5 -33 -9l-32 -8q-31 -9 -72.5 -21.5t-86.5 -27t-90.5 -30.5t-84.5 -33l-47 114q23 9 46.5 18t48.5 18q-44 42 -53 110q-9 70 36 127q16 20 36.5 34.5t42.5 24.5t44 15.5t40 7.5q38 4 69.5 -3.5t55 -18.5t37.5 -22t17 -14l-84 -90q1 0 1 -1q0 1 -6.5 5.5
t-18 10t-26.5 9t-33 2.5q-23 -2 -45.5 -12.5t-33.5 -25.5q-12 -14 -10 -34q3 -19 9.5 -27.5t14.5 -13.5q5 -4 16.5 -8t30.5 -6t47 -0.5t66 10.5q28 8 45 12.5t19 5.5zM-104 105q0 21 8 40t22.5 33.5t33.5 22.5t40 8h4q58 1 90.5 18t48.5 38.5t19.5 41t3.5 25.5v36.5t0.5 50
t1 54t1 50t0.5 37v14.5l205 -1v-241q0 -31 5 -50.5t12.5 -31t15 -17t12.5 -8.5q13 -7 30.5 -10.5t35.5 -4.5t34.5 -1h29.5h5q21 0 40 -8t33.5 -22.5t22.5 -33.5t8 -40t-9 -40.5t-24 -33.5t-35 -22.5t-41 -8.5q-17 0 -42.5 1t-55.5 5t-62.5 13t-63.5 25q-14 7 -28 16t-28 21
q-44 -37 -101 -58q-37 -14 -78.5 -18.5t-89.5 -4.5v1q-21 0 -40 8t-33.5 22.5t-22.5 33.5t-8 40z" />
    <glyph glyph-name="u0627" unicode="&#x627;" horiz-adv-x="391" arabic-form="isolated" 
d="M314 1180q2 -6 7 -30t10.5 -75t9.5 -134.5t4 -208.5t-6.5 -297.5t-21.5 -401.5l-204 -31q11 171 17 311t8.5 251t1.5 194t-3 140q-3 63 -6.5 106.5t-6.5 70.5t-5.5 39.5l-2.5 12.5v-1z" />
    <glyph glyph-name="uFE8E" unicode="&#x627;" horiz-adv-x="495" arabic-form="final" 
d="M290 419q0 -49 6.5 -88t29 -66t65.5 -41.5t117 -14.5v-209q-124 0 -214.5 36.5t-141.5 111.5q-22 32 -35 66t-20 69t-9 69.5t-2 66.5v763h204v-763z" />
    <glyph glyph-name="u0628" unicode="&#x628;" horiz-adv-x="1538" arabic-form="isolated" 
d="M952 -369l-147 -146l-148 148l146 147zM1470 580q91 -202 58 -320q-23 -83 -97 -122q-25 -12 -76.5 -29t-121 -34.5t-152 -33.5t-168.5 -26q-57 -7 -109 -10t-101 -3q-81 0 -151 9q-204 25 -316 127q-101 92 -115 235q-7 71 7.5 150t51.5 172l191 -76q-55 -135 -46 -226
q6 -64 49 -104q31 -28 83 -47t121 -28q66 -8 143.5 -7t167.5 11q80 9 153 23.5t131.5 29t99.5 27.5t58 20q2 13 -4.5 54t-39.5 117q-14 30 -27.5 56.5t-24.5 46.5q-13 23 -25 43l173 109q1 -1 9 -14.5t20.5 -35.5t27.5 -51.5t30 -62.5z" />
    <glyph glyph-name="uFE90" unicode="&#x628;" horiz-adv-x="1580" arabic-form="final" 
d="M943 -357l-147 -146l-148 148l146 147zM1585 204h1v-204q-6 0 -35.5 2.5t-68 14.5t-79.5 37.5t-71 72.5l-10 18t-9 18q-114 -87 -261 -131q-138 -43 -304 -43q-41 0 -82 3t-85 8q-3 0 -15.5 2t-32 6.5t-45.5 12t-54 18.5q-82 32 -143 81.5t-96 113.5q-50 87 -48 196
q1 57 16.5 117.5t44.5 126.5l187 -84q-74 -162 -22 -256q12 -20 28 -36.5t34.5 -29t37.5 -22t36 -16.5q19 -8 36.5 -13t30.5 -8t21 -4.5t9 -1.5q196 -23 349 13.5t262 133.5q48 42 77 82.5t43 69.5q5 12 10.5 24t11.5 25l190 -74q-2 -5 -7.5 -20.5t-17.5 -39.5
q-18 -45 -24.5 -77t-6.5 -53t4 -33t7 -16q6 -10 17.5 -16.5t23.5 -10.5t22 -5.5t15 -1.5h3z" />
    <glyph glyph-name="uFE91" unicode="&#x628;" horiz-adv-x="492" arabic-form="initial" 
d="M368 -256l-147 -146l-148 148l146 147zM-104 105q0 21 8 40t22.5 33.5t33.5 22.5t40 8q83 0 132.5 7t76 17t36.5 20t13 16q2 3 3.5 13t0.5 27.5t-6.5 42.5t-17.5 59q-9 28 -20.5 54t-23 47.5t-21.5 38t-17 25.5l159 128q15 -18 31 -44t31.5 -56t29.5 -62.5t25 -63.5
q35 -100 36 -178t-33 -134q-37 -62 -86.5 -95.5t-106 -49t-117.5 -18.5t-121 -3h-4q-21 0 -40 8.5t-33.5 22.5t-22.5 33.5t-8 40.5z" />
    <glyph glyph-name="uFE92" unicode="&#x628;" horiz-adv-x="547" arabic-form="medial" 
d="M417 -257l-147 -146l-148 148l146 147zM-104 105q0 21 8 40t22.5 33.5t33.5 22.5t40 8h4q58 1 90.5 18t48.5 38.5t19.5 41t3.5 25.5v36.5t0.5 50t1 54t1 50t0.5 37v14.5l205 -1v-241q0 -31 5 -50.5t12.5 -31t15 -17t12.5 -8.5q13 -7 30.5 -10.5t35.5 -4.5t34.5 -1h29.5h5
q21 0 40 -8t33.5 -22.5t22.5 -33.5t8 -40t-9 -40.5t-24 -33.5t-35 -22.5t-41 -8.5q-17 0 -42.5 1t-55.5 5t-62.5 13t-63.5 25q-14 7 -28 16t-28 21q-44 -37 -101 -58q-37 -14 -78.5 -18.5t-89.5 -4.5v1q-21 0 -40 8t-33.5 22.5t-22.5 33.5t-8 40z" />
    <glyph glyph-name="u067E" unicode="&#x67e;" horiz-adv-x="1559" arabic-form="isolated" 
d="M1470 580q91 -202 58 -320q-23 -83 -97 -122q-25 -12 -76.5 -29t-121 -34.5t-152 -33.5t-168.5 -26q-57 -7 -109 -10t-101 -3q-81 0 -151 9q-204 25 -316 127q-101 92 -115 235q-7 71 7.5 150t51.5 172l191 -76q-55 -135 -46 -226q6 -64 49 -104q31 -28 83 -47t121 -28
q66 -8 143.5 -7t167.5 11q80 9 153 23.5t131.5 29t99.5 27.5t58 20q2 13 -4.5 54t-39.5 117q-14 30 -27.5 56.5t-24.5 46.5q-13 23 -25 43l173 109q1 -1 9 -14.5t20.5 -35.5t27.5 -51.5t30 -62.5zM482 -280l145 151l148 -148l-146 -147zM792 -276l147 146l148 -148
l-146 -147zM650 -489l129 128l130 -130l-128 -129z" />
    <glyph glyph-name="uFB57" unicode="&#x67e;" horiz-adv-x="1580" arabic-form="final" 
d="M495 -293l145 151l148 -148l-146 -147zM805 -289l147 146l148 -148l-146 -147zM663 -502l129 128l130 -130l-128 -129zM1593 0q-6 0 -36.5 2.5t-70.5 14.5t-82 37.5t-72 72.5l-10 18t-9 18q-114 -87 -261 -131q-138 -43 -304 -43q-41 0 -82 3t-85 8q-3 0 -15.5 2t-32 6.5
t-45.5 12t-54 18.5q-82 32 -143 81.5t-96 113.5q-50 87 -48 196q1 57 16.5 117.5t44.5 126.5l187 -84q-74 -162 -22 -256q12 -20 28 -36.5t34.5 -29t37.5 -22t36 -16.5q19 -8 36.5 -13t30.5 -8t21 -4.5t9 -1.5q196 -23 349 13.5t262 133.5q48 42 77 82.5t43 69.5
q5 12 10.5 24t11.5 25l190 -74q-2 -5 -7.5 -20.5t-17.5 -39.5q-18 -45 -24.5 -77t-6.5 -53t4 -33t7 -16q8 -12 22 -18.5t29 -10.5q17 -4 37 -5h1v-204z" />
    <glyph glyph-name="uFB58" unicode="&#x67e;" horiz-adv-x="615" arabic-form="initial" 
d="M-19 -257l145 151l148 -148l-146 -147zM271 -255l147 146l148 -148l-146 -147zM146 -452l129 128l130 -130l-128 -129zM-104 105q0 21 8 40t22.5 33.5t33.5 22.5t40 8q83 0 143 4.5t100.5 12.5t63 19t30.5 24q2 3 3.5 13t0.5 27.5t-6.5 42.5t-17.5 59q-9 28 -20.5 54
t-23 47.5t-21.5 38t-17 25.5l159 128q15 -18 31 -44t31.5 -56t29.5 -62.5t25 -63.5q35 -100 37 -179t-34 -133q-42 -63 -99 -97t-123.5 -49.5t-140 -17.5t-147.5 -2h-4q-21 0 -40 8.5t-33.5 22.5t-22.5 33.5t-8 40.5z" />
    <glyph glyph-name="uFB59" unicode="&#x67e;" horiz-adv-x="613" arabic-form="medial" 
d="M-104 105q0 21 8 40t22.5 33.5t33.5 22.5t40 8h4q58 1 100.5 13.5t70.5 30.5t41.5 39.5t13.5 39.5v36.5t0.5 50t1 54t1 50t0.5 37v14.5l205 -1v-241q0 -66 48 -94.5t131 -28.5h5q21 0 40 -8t33.5 -22.5t22.5 -33.5t8 -40t-9 -40.5t-24 -33.5t-35 -22.5t-41 -8.5
q-17 0 -43 1t-57 5t-64 13t-64 25q-14 7 -28 16t-28 21q-44 -37 -101 -58q-18 -7 -48 -11.5t-63 -7t-65 -3.5t-56 -1v1q-21 0 -40 8t-33.5 22.5t-22.5 33.5t-8 40zM15 -257l145 151l148 -148l-146 -147zM305 -255l147 146l148 -148l-146 -147zM180 -452l129 128l130 -130
l-128 -129z" />
    <glyph glyph-name="u062A" unicode="&#x62a;" horiz-adv-x="1550" arabic-form="isolated" 
d="M1030 924l-147 -146l-148 148l146 147zM734 927l-147 -146l-148 148l146 147zM1422 580q91 -202 58 -320q-23 -83 -97 -122q-25 -12 -76.5 -29t-121 -34.5t-152 -33.5t-168.5 -26q-57 -7 -109 -10t-101 -3q-81 0 -151 9q-204 25 -316 127q-101 92 -115 235q-7 71 7.5 150
t51.5 172l191 -76q-55 -135 -46 -226q6 -64 49 -104q31 -28 83 -47t121 -28q66 -8 143.5 -7t167.5 11q80 9 153 23.5t131.5 29t99.5 27.5t58 20q2 13 -4.5 54t-39.5 117q-14 30 -27.5 56.5t-24.5 46.5q-13 23 -25 43l173 109q1 -1 9 -14.5t20.5 -35.5t27.5 -51.5t30 -62.5z
" />
    <glyph glyph-name="uFE96" unicode="&#x62a;" horiz-adv-x="1580" arabic-form="final" 
d="M1149 921l-147 -146l-148 148l146 147zM833 924l-147 -146l-148 148l146 147zM1585 204v-204q-6 0 -35.5 2.5t-67.5 14.5t-79 37.5t-71 72.5l-10 18t-9 18q-114 -87 -261 -131q-138 -43 -304 -43q-41 0 -82 3t-85 8q-3 0 -15.5 2t-32 6.5t-45.5 12t-54 18.5
q-82 32 -143 81.5t-96 113.5q-50 87 -48 196q1 57 16.5 117.5t44.5 126.5l187 -84q-74 -162 -22 -256q12 -20 28 -36.5t34.5 -29t37.5 -22t36 -16.5q19 -8 36.5 -13t30.5 -8t21 -4.5t9 -1.5q196 -23 349 13.5t262 133.5q48 42 77 82.5t43 69.5q5 12 10.5 24t11.5 25l190 -74
q-2 -5 -7.5 -20.5t-17.5 -39.5q-18 -45 -24.5 -77t-6.5 -53t4 -33t7 -16q8 -12 20.5 -18.5t26.5 -10.5q15 -4 33 -5h-6h7z" />
    <glyph glyph-name="uFE97" unicode="&#x62a;" horiz-adv-x="617" arabic-form="initial" 
d="M606 1015l-145 -151l-148 148l146 147zM313 1012l-147 -146l-148 148l146 147zM-104 105q0 21 8 40t22.5 33.5t33.5 22.5t40 8q83 0 139.5 5t92.5 13t55 19t27 23q4 7 6 17t0.5 26.5t-8 40.5t-18.5 58q-9 28 -20.5 54t-23 47.5t-21.5 38t-17 25.5l159 128q15 -18 31 -44
t31.5 -56t29.5 -62.5t25 -63.5q35 -100 36 -178t-33 -134q-37 -62 -95.5 -95.5t-125.5 -49t-136.5 -18.5t-129.5 -3h-4q-21 0 -40 8.5t-33.5 22.5t-22.5 33.5t-8 40.5z" />
    <glyph glyph-name="uFE98" unicode="&#x62a;" horiz-adv-x="585" arabic-form="medial" 
d="M591 1013l-145 -151l-148 148l146 147zM298 1010l-147 -146l-148 148l146 147zM-104 105q0 21 8 40t22.5 33.5t33.5 22.5t40 8h4q58 1 95.5 13.5t59.5 30.5t30.5 39.5t8.5 39.5v36.5t0.5 50t1 54t1 50t0.5 37v14.5l205 -1v-241q0 -66 48 -94.5t131 -28.5h5q21 0 40 -8
t33.5 -22.5t22.5 -33.5t8 -40t-9 -40.5t-24 -33.5t-35 -22.5t-41 -8.5q-17 0 -43 1t-57 5t-64 13t-64 25q-14 7 -28 16t-28 21q-44 -37 -101 -58q-18 -7 -43 -11.5t-52 -7t-54 -3.5t-51 -1v1q-21 0 -40 8t-33.5 22.5t-22.5 33.5t-8 40z" />
    <glyph glyph-name="u062B" unicode="&#x62b;" horiz-adv-x="1587" arabic-form="isolated" 
d="M1470 580q91 -202 58 -320q-23 -83 -97 -122q-25 -12 -76.5 -29t-121 -34.5t-152 -33.5t-168.5 -26q-57 -7 -109 -10t-101 -3q-81 0 -151 9q-204 25 -316 127q-101 92 -115 235q-7 71 7.5 150t51.5 172l191 -76q-55 -135 -46 -226q6 -64 49 -104q31 -28 83 -47t121 -28
q66 -8 143.5 -7t167.5 11q80 9 153 23.5t131.5 29t99.5 27.5t58 20q2 13 -4.5 54t-39.5 117q-14 30 -27.5 56.5t-24.5 46.5q-13 23 -25 43l173 109q1 -1 9 -14.5t20.5 -35.5t27.5 -51.5t30 -62.5zM1170 890l-145 -151l-148 148l146 147zM860 887l-147 -146l-148 148l146 147
zM1002 1100l-129 -128l-130 130l128 129z" />
    <glyph glyph-name="uFE9A" unicode="&#x62b;" horiz-adv-x="1581" arabic-form="final" 
d="M1170 890l-145 -151l-148 148l146 147zM860 887l-147 -146l-148 148l146 147zM1002 1100l-129 -128l-130 130l128 129zM1586 0q-6 0 -35.5 2.5t-68 14.5t-79.5 37.5t-71 72.5l-10 18t-9 18q-114 -87 -261 -131q-138 -43 -304 -43q-41 0 -82 3t-85 8q-3 0 -15.5 2t-32 6.5
t-45.5 12t-54 18.5q-82 32 -143 81.5t-96 113.5q-50 87 -48 196q1 57 16.5 117.5t44.5 126.5l187 -84q-74 -162 -22 -256q12 -20 28 -36.5t34.5 -29t37.5 -22t36 -16.5q19 -8 36.5 -13t30.5 -8t21 -4.5t9 -1.5q196 -23 349 13.5t262 133.5q48 42 77 82.5t43 69.5
q5 12 10.5 24t11.5 25l190 -74q-2 -5 -7.5 -20.5t-17.5 -39.5q-18 -45 -24.5 -76.5t-6.5 -52.5t4 -32.5t7 -15.5q6 -9 17 -15t23 -9.5t23.5 -5t18.5 -1.5v-209z" />
    <glyph glyph-name="uFE9B" unicode="&#x62b;" horiz-adv-x="606" arabic-form="initial" 
d="M-13 0q-21 0 -40.5 8t-33.5 22t-22.5 33t-8.5 41t8.5 41t22.5 33t33.5 22.5t40.5 8.5h13q83 0 132.5 7t76 17t36.5 20t13 16q2 3 3.5 13t0.5 27.5t-6.5 42.5t-17.5 59q-9 28 -20.5 54t-23 47.5t-21.5 38t-17 25.5l159 128q15 -18 31 -44t31.5 -56t29.5 -62.5t25 -63.5
q69 -199 3 -312q-24 -42 -58 -71.5t-82 -49.5q-105 -45 -293 -45h-15zM614 928l-145 -151l-148 148l146 147zM304 925l-147 -146l-148 148l146 147zM446 1138l-129 -128l-130 130l128 129z" />
    <glyph glyph-name="uFE9C" unicode="&#x62b;" horiz-adv-x="614" arabic-form="medial" 
d="M-104 105q0 21 8 40t22.5 33.5t33.5 22.5t40 8h4q58 1 99 13.5t67 30.5t38.5 39.5t12.5 39.5v36.5t0.5 50t1 54t1 50t0.5 37v14.5l205 -1v-241q0 -33 13.5 -56.5t38.5 -38t59.5 -21.5t75.5 -7h5q21 0 40 -8t33.5 -22.5t22.5 -33.5t8 -40t-9 -40.5t-24 -33.5t-35 -22.5
t-41 -8.5q-17 0 -44.5 1t-59.5 5t-66.5 13t-65.5 25q-14 7 -28 16t-28 21q-44 -37 -101 -58q-18 -7 -46.5 -11.5t-60 -7t-62 -3.5t-54.5 -1v1q-21 0 -40 8t-33.5 22.5t-22.5 33.5t-8 40zM614 929l-145 -151l-148 148l146 147zM304 925l-147 -146l-148 148l146 147zM446 1138
l-129 -128l-130 130l128 129z" />
    <glyph glyph-name="u062C" unicode="&#x62c;" horiz-adv-x="1289" arabic-form="isolated" 
d="M930 -75l-147 -146l-148 148l146 147zM821 280q-53 -13 -107 -30.5t-107 -40.5t-102 -52.5t-91 -66.5q-24 -21 -44.5 -52t-33 -68t-16 -77.5t7.5 -80.5q13 -48 44 -83t71.5 -59t85.5 -38.5t87 -22.5q105 -20 235 3.5t294 92.5l79 -189q-146 -60 -271.5 -90t-237.5 -30
q-71 0 -137 12q-185 34 -302 130q-54 44 -91 99.5t-54 120.5q-18 66 -15.5 135t25.5 138q21 63 56.5 117.5t81.5 95.5q50 44 116.5 78t138.5 61t143 47t131 35q-74 40 -157 92q-91 58 -172 39q-36 -9 -67 -30t-56 -45.5t-42.5 -48t-25.5 -37.5v1l-178 100q2 4 22.5 35.5
t58.5 72.5q54 58 114 95.5t123 54.5q80 20 160 6q44 -8 88 -24.5t85 -45.5q109 -78 193 -119t141.5 -59t87.5 -20.5t31 -2.5l-64 -195q-1 0 -34 -4.5t-93 -12.5z" />
    <glyph glyph-name="uFE9E" unicode="&#x62c;" horiz-adv-x="1343" arabic-form="final" 
d="M885 -76l-147 -146l-148 148l146 147zM1294 207h64v-207h-62h-46q-44 0 -86.5 3t-83 12.5t-77.5 28t-68 50.5q-74 73 -95 207q-53 -13 -107 -30.5t-107 -40.5t-102 -52.5t-91 -66.5q-24 -21 -44.5 -52t-33 -68t-16 -77.5t7.5 -80.5q13 -48 44 -83t71.5 -59t85.5 -38.5
t87 -22.5q105 -20 235 3.5t294 92.5l79 -189q-146 -60 -271.5 -90t-237.5 -30q-71 0 -137 12q-185 34 -302 130q-54 44 -91 99.5t-54 120.5q-18 66 -15.5 135t25.5 138q21 63 56.5 117.5t81.5 95.5q50 44 116.5 78t138.5 61t143 47t131 35q-74 40 -157 92q-91 58 -172 39
q-36 -9 -67 -30t-56 -45.5t-42.5 -48t-25.5 -37.5v1l-178 100q2 4 22.5 35.5t58.5 72.5q54 58 114 95.5t123 54.5q80 20 160 6q44 -8 88 -24.5t85 -45.5q109 -78 193 -117.5t142 -56.5t88 -18.5t31 -1.5l-65 -202q-1 0 -34 -4.5t-93 -12.5q9 -71 37 -99q13 -13 34.5 -19.5
t49.5 -9.5t61.5 -3h69.5z" />
    <glyph glyph-name="uFE9F" unicode="&#x62c;" horiz-adv-x="1172" arabic-form="initial" 
d="M-13 0q-21 0 -40.5 8t-33.5 22t-22.5 33t-8.5 41t8.5 41t22.5 33t33.5 22.5t40.5 8.5h15v-1q147 0 261.5 12.5t204.5 32.5t160 45t130 51q-62 21 -114.5 44t-87.5 41q-56 31 -103 38t-81 -7q-23 -9 -39.5 -26.5t-27.5 -34.5t-16 -30l-5 -13l-196 58q2 7 13 35.5t35 65.5
t62.5 74t94.5 60q78 32 164 23q23 -3 53 -9.5t63.5 -17t69 -25.5t69.5 -33q76 -42 135 -65.5t108 -37.5t89.5 -22.5t79.5 -19.5l-54 -200q-43 -2 -90 -24t-104 -46q-65 -28 -144 -59t-183 -57.5t-239 -43.5t-310 -17h-13zM762 -260l-147 -146l-148 148l146 147z" />
    <glyph glyph-name="uFEA0" unicode="&#x62c;" horiz-adv-x="1288" arabic-form="medial" 
d="M-13 0q-21 0 -40.5 8t-33.5 22t-22.5 33t-8.5 41t8.5 41t22.5 33t33.5 22.5t40.5 8.5h15q56 1 116 0t122.5 3t127 15t128.5 35q77 30 161.5 59t163.5 63l-27 10q-39 15 -73.5 29t-60 25t-40.5 18t-16 8l-5 2q-145 79 -249 17q-21 -13 -37 -28t-27 -29q-13 -16 -22 -31
l-181 95q3 6 19.5 32t47 59t76.5 65.5t108 51.5q40 13 82 16t86 -2q96 -12 192 -64q21 -10 58 -25t82.5 -31t96 -32t99 -29t91.5 -21t74 -8l-48 -186q-5 -2 -42 -22t-110 -62q28 -24 83.5 -28t150.5 -5q16 0 33.5 0.5t31.5 0.5v-210h-147q-42 0 -85.5 2.5t-87.5 16.5
q-89 29 -144 94q-16 18 -29 40q-59 -25 -117.5 -49t-113.5 -45q-99 -38 -195.5 -49t-183.5 -11h-23h-16.5t-26 0.5t-50.5 0.5h-88zM764 -257l-147 -146l-148 148l146 147z" />
    <glyph glyph-name="u0686" unicode="&#x686;" horiz-adv-x="1322" arabic-form="isolated" 
d="M512 7l145 151l148 -148l-146 -147zM819 10l147 146l148 -148l-146 -147zM680 -202l129 128l130 -130l-128 -129zM821 280q-53 -13 -107 -30.5t-107 -40.5t-102 -52.5t-91 -66.5q-24 -21 -44.5 -52t-33 -68t-16 -77.5t7.5 -80.5q13 -48 44 -83t71.5 -59t85.5 -38.5
t87 -22.5q105 -20 235 3.5t294 92.5l79 -189q-146 -60 -271.5 -90t-237.5 -30q-71 0 -137 12q-185 34 -302 130q-54 44 -91 99.5t-54 120.5q-18 66 -15.5 135t25.5 138q21 63 56.5 117.5t81.5 95.5q50 44 116.5 78t138.5 61t143 47t131 35q-74 40 -157 92q-91 58 -172 39
q-36 -9 -67 -30t-56 -45.5t-42.5 -48t-25.5 -37.5v1l-178 100q2 4 22.5 35.5t58.5 72.5q54 58 114 95.5t123 54.5q80 20 160 6q44 -8 88 -24.5t85 -45.5q109 -78 193 -119t141.5 -59t87.5 -20.5t31 -2.5l-64 -195q-1 0 -34 -4.5t-93 -12.5z" />
    <glyph glyph-name="uFB7B" unicode="&#x686;" horiz-adv-x="1343" arabic-form="final" 
d="M565 -207l122 120l123 -122l-121 -122zM714 -46l122 121l123 -123l-122 -121zM418 -42l122 121l122 -123l-120 -121zM1294 207h64v-207h-62h-46q-44 0 -86.5 3t-83 12.5t-77.5 28t-68 50.5q-74 73 -95 207q-53 -13 -107 -30.5t-107 -40.5t-102 -52.5t-91 -66.5
q-24 -21 -44.5 -52t-33 -68t-16 -77.5t7.5 -80.5q13 -48 44 -83t71.5 -59t85.5 -38.5t87 -22.5q105 -20 235 3.5t294 92.5l79 -189q-146 -60 -271.5 -90t-237.5 -30q-71 0 -137 12q-185 34 -302 130q-54 44 -91 99.5t-54 120.5q-18 66 -15.5 135t25.5 138q21 63 56.5 117.5
t81.5 95.5q50 44 116.5 78t138.5 61t143 47t131 35q-74 40 -157 92q-91 58 -172 39q-36 -9 -67 -30t-56 -45.5t-42.5 -48t-25.5 -37.5v1l-178 100q2 4 22.5 35.5t58.5 72.5q54 58 114 95.5t123 54.5q80 20 160 6q44 -8 88 -24.5t85 -45.5q109 -78 193 -117.5t142 -56.5
t88 -18.5t31 -1.5l-65 -202q-1 0 -34 -4.5t-93 -12.5q9 -71 37 -99q13 -13 34.5 -19.5t49.5 -9.5t61.5 -3h69.5z" />
    <glyph glyph-name="uFB7C" unicode="&#x686;" horiz-adv-x="1167" arabic-form="initial" 
d="M-13 0q-21 0 -40.5 8t-33.5 22t-22.5 33t-8.5 41t8.5 41t22.5 33t33.5 22.5t40.5 8.5h7q148 0 263.5 12.5t206.5 32t162.5 44.5t130.5 51q-62 21 -116.5 42.5t-88.5 40.5q-113 60 -181 33q-23 -10 -39.5 -27t-27.5 -34q-12 -20 -21 -43l-196 58q2 7 13 35.5t35 65.5
t62.5 74t95.5 60q74 31 163 22q46 -5 95 -19.5t98 -44.5q33 -21 74 -39t85 -33.5t89 -29.5t87 -25.5t77.5 -21t61.5 -16.5l-54 -200q-43 -2 -90 -24t-104 -47q-64 -28 -143.5 -58.5t-184 -56.5t-238.5 -43.5t-307 -17.5h-15zM628 -242l147 146l148 -148l-146 -147zM318 -246
l145 151l148 -148l-146 -147zM486 -455l129 128l130 -130l-128 -129z" />
    <glyph glyph-name="uFB7D" unicode="&#x686;" horiz-adv-x="1288" arabic-form="medial" 
d="M-13 0q-21 0 -40.5 8t-33.5 22t-22.5 33t-8.5 41t8.5 41t22.5 33t33.5 22.5t40.5 8.5h95h95.5t104 3.5t108 13.5t106.5 30q77 30 161.5 62t163.5 66l-27 10q-39 15 -73.5 29t-60 25t-40.5 18t-16 8l-5 2q-145 79 -249 17q-21 -13 -37 -28t-27 -29q-13 -16 -22 -31
l-181 95q3 6 19.5 32t47 59t76.5 65.5t108 51.5q40 13 82 16t86 -2q96 -12 192 -64q21 -10 58 -25t82.5 -31t96 -32t99 -29t91.5 -21t74 -8l-48 -186q-5 -2 -42 -22t-110 -62q28 -24 83.5 -28t150.5 -5h69v-209h-60q-21 0 -56.5 0.5t-74.5 2.5t-75 5.5t-58 10.5
q-89 29 -144 94q-16 18 -29 40q-59 -25 -117.5 -49t-113.5 -45q-99 -38 -195.5 -49t-183.5 -11h-116h-33q-14 0 -28 0.5t-22 0.5h-5zM578 -272l147 146l148 -148l-146 -147zM268 -276l145 151l148 -148l-146 -147zM436 -485l129 128l130 -130l-128 -129z" />
    <glyph glyph-name="u062D" unicode="&#x62d;" horiz-adv-x="1283" arabic-form="isolated" 
d="M821 280q-53 -13 -107 -30.5t-107 -40.5t-102 -52.5t-91 -66.5q-24 -21 -44.5 -52t-33 -68t-16 -77.5t7.5 -80.5q13 -48 44 -83t71.5 -59t85.5 -38.5t87 -22.5q105 -20 235 3.5t294 92.5l79 -189q-146 -60 -271.5 -90t-237.5 -30q-71 0 -137 12q-185 34 -302 130
q-54 44 -91 99.5t-54 120.5q-18 66 -15.5 135t25.5 138q21 63 56.5 117.5t81.5 95.5q50 44 116.5 78t138.5 61t143 47t131 35q-74 40 -157 92q-91 58 -172 39q-36 -9 -67 -30t-56 -45.5t-42.5 -48t-25.5 -37.5v1l-178 100q2 4 22.5 35.5t58.5 72.5q54 58 114 95.5t123 54.5
q80 20 160 6q44 -8 88 -24.5t85 -45.5q109 -78 193 -119t141.5 -59t87.5 -20.5t31 -2.5l-64 -195q-1 0 -34 -4.5t-93 -12.5z" />
    <glyph glyph-name="uFEA2" unicode="&#x62d;" horiz-adv-x="1343" arabic-form="final" 
d="M1294 207h64v-207h-62h-46q-44 0 -86.5 3t-83 12.5t-77.5 28t-68 50.5q-74 73 -95 207q-53 -13 -107 -30.5t-107 -40.5t-102 -52.5t-91 -66.5q-24 -21 -44.5 -52t-33 -68t-16 -77.5t7.5 -80.5q13 -48 44 -83t71.5 -59t85.5 -38.5t87 -22.5q105 -20 235 3.5t294 92.5
l79 -189q-146 -60 -271.5 -90t-237.5 -30q-71 0 -137 12q-185 34 -302 130q-54 44 -91 99.5t-54 120.5q-18 66 -15.5 135t25.5 138q21 63 56.5 117.5t81.5 95.5q50 44 116.5 78t138.5 61t143 47t131 35q-74 40 -157 92q-91 58 -172 39q-36 -9 -67 -30t-56 -45.5t-42.5 -48
t-25.5 -37.5v1l-178 100q2 4 22.5 35.5t58.5 72.5q54 58 114 95.5t123 54.5q80 20 160 6q44 -8 88 -24.5t85 -45.5q109 -78 193 -117.5t142 -56.5t88 -18.5t31 -1.5l-65 -202q-1 0 -34 -4.5t-93 -12.5q9 -71 37 -99q13 -13 34.5 -19.5t49.5 -9.5t61.5 -3h69.5z" />
    <glyph glyph-name="uFEA3" unicode="&#x62d;" horiz-adv-x="1142" arabic-form="initial" 
d="M-13 0q-21 0 -40.5 8t-33.5 22t-22.5 33t-8.5 41t8.5 41t22.5 33t33.5 22.5t40.5 8.5h13q148 0 262.5 12.5t204.5 32t160.5 44.5t129.5 51q-62 21 -116.5 42.5t-88.5 40.5q-113 60 -181 33q-23 -10 -39.5 -27t-27.5 -34q-12 -20 -21 -43l-196 58q2 7 13 35.5t35 65.5
t62.5 74t95.5 60q74 31 163 22q90 -9 193 -64q22 -12 58.5 -26.5t80.5 -30.5t92.5 -32t94 -30.5t84 -26.5t64.5 -19l-54 -200q-43 -2 -90 -24t-104 -47q-65 -28 -144 -59t-183 -57t-238 -43t-308 -17h-15z" />
    <glyph glyph-name="uFEA4" unicode="&#x62d;" horiz-adv-x="1289" arabic-form="medial" 
d="M-13 0q-21 0 -40.5 8t-33.5 22t-22.5 33t-8.5 41t8.5 41t22.5 33t33.5 22.5t40.5 8.5h5v1h15t14 -0.5t22 -0.5h39q43 0 94 -1t104.5 1.5t108.5 11.5t107 29q77 30 161.5 65t163.5 69l-27 10q-39 15 -73.5 29t-60 25t-40.5 18t-16 8l-5 2q-145 79 -249 17q-21 -13 -37 -28
t-27 -29q-13 -16 -22 -31l-181 95q3 6 19.5 32t47 59t76.5 65.5t108 51.5q40 13 82 16t86 -2q96 -12 192 -64q21 -10 58 -25t82.5 -31t96 -32t99 -29t91.5 -21t74 -8l-48 -186q-5 -2 -42 -22t-110 -62q28 -24 83.5 -28t150.5 -5h66v-209h-148q-42 0 -85.5 2.5t-87.5 16.5
q-89 29 -144 94q-16 18 -29 40q-59 -25 -117.5 -49t-113.5 -45q-66 -25 -128.5 -37t-123.5 -16.5t-121.5 -4.5t-121.5 -1h-83h-5z" />
    <glyph glyph-name="u062E" unicode="&#x62e;" horiz-adv-x="1322" arabic-form="isolated" 
d="M684 1089l-147 -146l-148 148l146 147zM821 280q-53 -13 -107 -30.5t-107 -40.5t-102 -52.5t-91 -66.5q-24 -21 -44.5 -52t-33 -68t-16 -77.5t7.5 -80.5q13 -48 44 -83t71.5 -59t85.5 -38.5t87 -22.5q105 -20 235 3.5t294 92.5l79 -189q-146 -60 -271.5 -90t-237.5 -30
q-71 0 -137 12q-185 34 -302 130q-54 44 -91 99.5t-54 120.5q-18 66 -15.5 135t25.5 138q21 63 56.5 117.5t81.5 95.5q50 44 116.5 78t138.5 61t143 47t131 35q-74 40 -157 92q-91 58 -172 39q-36 -9 -67 -30t-56 -45.5t-42.5 -48t-25.5 -37.5v1l-178 100q2 4 22.5 35.5
t58.5 72.5q54 58 114 95.5t123 54.5q80 20 160 6q44 -8 88 -24.5t85 -45.5q109 -78 193 -119t141.5 -59t87.5 -20.5t31 -2.5l-64 -195q-1 0 -34 -4.5t-93 -12.5z" />
    <glyph glyph-name="uFEA6" unicode="&#x62e;" horiz-adv-x="1343" arabic-form="final" 
d="M1294 207h64v-207h-62h-46q-44 0 -86.5 3t-83 12.5t-77.5 28t-68 50.5q-74 73 -95 207q-53 -13 -107 -30.5t-107 -40.5t-102 -52.5t-91 -66.5q-24 -21 -44.5 -52t-33 -68t-16 -77.5t7.5 -80.5q13 -48 44 -83t71.5 -59t85.5 -38.5t87 -22.5q105 -20 235 3.5t294 92.5
l79 -189q-146 -60 -271.5 -90t-237.5 -30q-71 0 -137 12q-185 34 -302 130q-54 44 -91 99.5t-54 120.5q-18 66 -15.5 135t25.5 138q21 63 56.5 117.5t81.5 95.5q50 44 116.5 78t138.5 61t143 47t131 35q-74 40 -157 92q-91 58 -172 39q-36 -9 -67 -30t-56 -45.5t-42.5 -48
t-25.5 -37.5v1l-178 100q2 4 22.5 35.5t58.5 72.5q54 58 114 95.5t123 54.5q80 20 160 6q44 -8 88 -24.5t85 -45.5q109 -78 193 -117.5t142 -56.5t88 -18.5t31 -1.5l-65 -202q-1 0 -34 -4.5t-93 -12.5q9 -71 37 -99q13 -13 34.5 -19.5t49.5 -9.5t61.5 -3h69.5zM730 1090
l-147 -146l-148 148l146 147z" />
    <glyph glyph-name="uFEA7" unicode="&#x62e;" horiz-adv-x="1177" arabic-form="initial" 
d="M-13 0q-21 0 -40.5 8t-33.5 22t-22.5 33t-8.5 41t8.5 41t22.5 33t33.5 22.5t40.5 8.5h15q147 0 261.5 12.5t204.5 32t160 44.5t130 51q-62 21 -114.5 44t-87.5 41q-56 31 -103 38t-81 -7q-23 -9 -39.5 -26.5t-27.5 -34.5t-16 -30l-5 -13l-196 58q2 7 13 35.5t35 65.5
t62.5 74t94.5 60q78 32 164 23q46 -5 93.5 -17.5t99.5 -37.5q22 -11 58.5 -25.5t80.5 -31.5t92.5 -35t93.5 -34t84 -29t65 -20l-54 -200q-43 -2 -90 -24t-104 -46q-65 -28 -144 -59t-183 -57.5t-239 -43.5t-310 -17h-13zM589 1014l-147 -146l-148 148l146 147z" />
    <glyph glyph-name="uFEA8" unicode="&#x62e;" horiz-adv-x="1288" arabic-form="medial" 
d="M-13 0q-21 0 -40.5 8t-33.5 22t-22.5 33t-8.5 41t8.5 41t22.5 33t33.5 22.5t40.5 8.5h15q57 0 120.5 0.5t127.5 4.5t126.5 12.5t119.5 23.5q80 22 163 61t162 73l-27 10q-39 15 -73.5 29t-60 25t-40.5 18t-16 8l-5 2q-145 79 -249 17q-21 -13 -37 -28t-27 -29
q-13 -16 -22 -31l-181 95q3 6 19.5 32t47 59t76.5 65.5t108 51.5q40 13 82 16t86 -2q96 -12 192 -64q21 -10 58 -25t82.5 -31t96 -32t99 -29t91.5 -21t74 -8l-48 -186q-5 -2 -42 -22.5t-110 -62.5q28 -24 83.5 -28t150.5 -5h66v-208h-153q-42 0 -83 2.5t-85 16.5
q-89 29 -144 94q-16 18 -29 40q-59 -25 -117.5 -49t-113.5 -45q-99 -38 -195.5 -49t-183.5 -11q-32 0 -61 -1t-55 1q-20 0 -39 0.5t-36 0.5h-13zM566 1015l-147 -146l-148 148l146 147z" />
    <glyph glyph-name="u062F" unicode="&#x62f;" horiz-adv-x="850" arabic-form="isolated" 
d="M646 646q75 -89 111 -165.5t45 -139.5t-2.5 -113t-32.5 -87q-10 -17 -25 -35.5t-38 -36.5t-54 -33t-73 -24q-56 -12 -125 -12q-20 0 -40 1t-42 3q-48 4 -91.5 10.5t-77.5 12t-54.5 9.5t-22.5 4l47 189l19 -4t49.5 -9t69.5 -9t79 -5q97 -2 143.5 10.5t56.5 29.5
q17 30 11.5 67t-22.5 74t-41.5 71t-45.5 59q-34 40 -68.5 74t-63 58.5t-47 39l-18.5 14.5l121 165q2 -2 23.5 -18.5t55 -45.5t74 -68.5t79.5 -85.5z" />
    <glyph glyph-name="uFEAA" unicode="&#x62f;" horiz-adv-x="963" arabic-form="final" 
d="M968 0q-91 0 -158 24.5t-110 56.5q-6 -5 -12.5 -10.5t-13.5 -10.5q-51 -34 -111 -50t-123 -16q-68 0 -136 7t-122.5 15t-89 15.5t-37.5 9.5l56 195q1 0 32.5 -5t79.5 -10.5t104 -10.5t106 -5q56 0 116 27q14 6 22 11.5t13 10.5l-211 550l192 74l227 -592q6 -11 18 -24.5
t32.5 -25t51.5 -19.5t74 -8v-209z" />
    <glyph glyph-name="u0630" unicode="&#x630;" horiz-adv-x="871" arabic-form="isolated" 
d="M562 1150l-147 -146l-148 148l146 147zM646 646q75 -89 111 -165.5t45 -139.5t-2.5 -113t-32.5 -87q-10 -17 -25 -35.5t-38 -36.5t-54 -33t-73 -24q-56 -12 -125 -12q-20 0 -40 1t-42 3q-48 4 -91.5 10.5t-77.5 12t-54.5 9.5t-22.5 4l47 189l19 -4t49.5 -9t69.5 -9t79 -5
q97 -2 143.5 10.5t56.5 29.5q17 30 11.5 67t-22.5 74t-41.5 71t-45.5 59q-34 40 -68.5 74t-63 58.5t-47 39l-18.5 14.5l121 165q2 -2 23.5 -18.5t55 -45.5t74 -68.5t79.5 -85.5z" />
    <glyph glyph-name="uFEAC" unicode="&#x630;" horiz-adv-x="963" arabic-form="final" 
d="M606 1171l-147 -146l-148 148l146 147zM968 0q-91 0 -158 24.5t-110 56.5q-6 -5 -12.5 -10.5t-13.5 -10.5q-51 -34 -111 -50t-123 -16q-68 0 -136 7t-122.5 15t-89 15.5t-37.5 9.5l56 195q1 0 32.5 -5t79.5 -10.5t104 -10.5t106 -5q56 0 116 27q14 6 22 11.5t13 10.5
l-211 550l192 74l227 -592q6 -11 18 -24.5t32.5 -25t51.5 -19.5t74 -8v-209z" />
    <glyph glyph-name="u0631" unicode="&#x631;" horiz-adv-x="691" arabic-form="isolated" 
d="M593 324q38 -100 45.5 -188.5t-18.5 -163.5q-19 -58 -52.5 -114t-81.5 -110q-71 -82 -176 -156q-86 -62 -134.5 -89t-51.5 -29l-97 172q1 0 25.5 13t62.5 37t84 58t90 77.5t81 95t56 110.5q26 79 -23 210q-11 27 -22 50.5t-20 40.5t-15.5 27l-6.5 10l171 113q1 -1 9 -14
t20 -34.5t26 -51t28 -64.5z" />
    <glyph glyph-name="uFEAE" unicode="&#x631;" horiz-adv-x="768" arabic-form="final" 
d="M522 496q35 -76 59.5 -130.5t50.5 -89t58.5 -51t83.5 -16.5v-209q-44 0 -73 7t-46 16q-20 11 -32 24q-11 -101 -54 -189t-113 -159.5t-164.5 -124.5t-206.5 -82l-64 185q155 46 243.5 122.5t120.5 173.5t13.5 209t-76.5 228q0 1 -1 1l200 86z" />
    <glyph glyph-name="u0632" unicode="&#x632;" horiz-adv-x="701" arabic-form="isolated" 
d="M534 823l-147 -146l-148 148l146 147zM593 324q38 -100 45.5 -188.5t-18.5 -163.5q-19 -58 -52.5 -114t-81.5 -110q-71 -82 -176 -156q-86 -62 -134.5 -85.5t-51.5 -25.5l-89 160q1 0 25 13.5t61 38t82 59t88 78.5t79.5 96t55.5 111q26 79 -23 210q-11 27 -22 50.5
t-20 40.5t-15.5 27l-6.5 10l171 113q1 -1 9 -14t20 -34.5t26 -51t28 -64.5z" />
    <glyph glyph-name="uFEB0" unicode="&#x632;" horiz-adv-x="771" arabic-form="final" 
d="M555 837l-147 -146l-148 148l146 147zM522 496q35 -76 59.5 -130.5t50.5 -89t58.5 -51t83.5 -16.5v-209q-44 0 -73 7t-46 16q-20 11 -32 24q-11 -101 -54 -189t-113 -159.5t-164.5 -124.5t-206.5 -82l-64 185q155 46 243.5 122.5t120.5 173.5t13.5 209t-76.5 228
q0 1 -1 1l200 86z" />
    <glyph glyph-name="u0698" unicode="&#x698;" horiz-adv-x="701" arabic-form="isolated" 
d="M735 863l-145 -151l-148 148l146 147zM425 859l-147 -146l-148 148l146 147zM567 1072l-129 -128l-130 130l128 129zM612 324q38 -100 45.5 -188.5t-18.5 -163.5q-19 -58 -52.5 -114t-81.5 -110q-71 -82 -176 -156q-43 -31 -82 -54.5t-69.5 -39.5t-49.5 -24.5t-20 -9.5
l-81 188q1 0 27 12.5t66 36t88.5 57t94.5 76t84.5 93.5t57.5 110q26 79 -23 210q-11 27 -22 50.5t-20 40.5t-15.5 27l-6.5 10l171 113q1 -1 9 -14t20 -34.5t26 -51t28 -64.5z" />
    <glyph glyph-name="uFB8B" unicode="&#x698;" horiz-adv-x="768" arabic-form="final" 
d="M723 841l-145 -151l-148 148l146 147zM413 837l-147 -146l-148 148l146 147zM555 1050l-129 -128l-130 130l128 129zM522 496q35 -76 59.5 -130.5t50.5 -89t58.5 -51t83.5 -16.5v-209q-44 0 -73 7t-46 16q-20 11 -32 24q-11 -101 -54 -189t-113 -159.5t-164.5 -124.5
t-206.5 -82l-64 185q155 46 243.5 122.5t120.5 173.5t13.5 209t-76.5 228q0 1 -1 1l200 86z" />
    <glyph glyph-name="u0633" unicode="&#x633;" horiz-adv-x="2117" arabic-form="isolated" 
d="M2017 591q65 -124 65 -243q0 -79 -20.5 -143t-59 -109t-93 -70t-123.5 -26q-122 -3 -209 98q-4 5 -8 10.5t-9 11.5q-11 -16 -26 -33q-38 -42 -87 -64t-106 -23q-63 -2 -123 27q-1 -17 -2.5 -32.5t-4.5 -29.5q-17 -87 -65.5 -163t-120.5 -134q-37 -29 -78.5 -51.5
t-86.5 -38.5q-47 -17 -96.5 -25.5t-100.5 -8.5q-223 0 -355 100q-27 20 -55 50.5t-50.5 72.5t-37 97.5t-14.5 126.5q0 194 71 350q26 59 50 90.5t29 37.5l150 -140l1 1q-7 -9 -15 -21q-7 -11 -15.5 -26.5t-17.5 -35.5q-48 -111 -48 -256q0 -127 75 -184q78 -58 232 -58
q73 0 132.5 22t104 58.5t72.5 82.5t38 94q9 44 -1 113.5t-38 157.5q-8 23 -15 43.5t-14 39.5q-20 43 -31 62t-12 21l189 85q2 -2 13.5 -23t28.5 -65q11 -21 23 -44.5t27 -46.5q42 -69 83.5 -106.5t73.5 -37.5q15 0 25.5 4.5t19.5 14.5q20 22 33.5 64t18.5 99q2 24 2.5 47.5
t0.5 42.5t-0.5 31.5t-0.5 14.5v1l204 1v-2q0 -2 2 -19t6.5 -43t12 -58.5t18.5 -65.5q5 -15 14 -37.5t22 -43.5t29.5 -36t35.5 -15h1q12 0 28.5 2.5t31.5 16t25.5 42.5t10.5 82q0 34 -10 68t-23.5 63t-27.5 51t-22 32l157 130q3 -3 23 -29.5t43 -71.5z" />
    <glyph glyph-name="uFEB2" unicode="&#x633;" horiz-adv-x="2242" arabic-form="final" 
d="M2162 225q11 -11 31.5 -13.5t54.5 -2.5v-209q-30 -3 -61.5 0t-62 11t-59.5 22t-53 34l-6 6t-6 7q-3 -3 -6 -6.5t-7 -6.5q-45 -40 -100.5 -56.5t-118.5 -7.5h-6q-5 1 -21 5.5t-38.5 15.5t-49.5 29t-54 47q-2 2 -3.5 4t-3.5 4q-7 -9 -13.5 -17t-14.5 -16
q-38 -40 -86.5 -57.5t-104.5 -17.5h-6q-34 1 -66.5 12t-63.5 24q0 -160 -89 -275q-70 -91 -187 -145q-46 -21 -90 -33.5t-79 -19t-58 -8.5t-28 -2h-6q-36 1 -76 3.5t-81.5 10t-84 20.5t-82.5 34q-37 19 -76 50.5t-70.5 79t-51.5 112.5t-20 152t19 167t42.5 141.5t44 100
t22.5 41.5l176 -104q0 -1 -7.5 -14.5t-18.5 -37.5t-24 -56.5t-23.5 -70.5t-18 -80.5t-7.5 -86.5q0 -53 10.5 -89t26.5 -61t35 -39.5t36 -23.5q51 -26 113.5 -34.5t116.5 -9.5q6 0 23 2t42 7t54.5 14t59.5 23q78 37 115 93.5t37 138.5q0 21 -7.5 61.5t-19.5 91t-25.5 106
t-25.5 107.5l-17 63l202 55q18 -58 34 -100.5t31 -73t29.5 -51t29.5 -35.5q48 -45 109 -46q27 0 44 18q25 25 37.5 62t18 77.5t6 81.5t1.5 74h205v-69.5t5.5 -72t19 -69t39.5 -60.5q17 -18 32.5 -26t19.5 -10q20 -2 31 2.5t18 11.5q25 22 38.5 57.5t20 76t8 81.5t2.5 74h205
q0 -31 -2.5 -71.5t-1 -81.5t10.5 -79.5t32 -65.5z" />
    <glyph glyph-name="uFEB3" unicode="&#x633;" horiz-adv-x="1260" arabic-form="initial" 
d="M-108 105q0 21 8 40t22.5 33.5t33.5 22.5t40 8q10 0 30 2.5t45 17t52 45.5t51 87q16 38 27 82.5t22 112.5l202 -23q-9 -83 -13 -140.5t4 -104.5q1 -9 5 -23t11 -27t18 -23t28 -10q19 0 33 3t26 14t23.5 31t26.5 54q26 59 39 114.5t24 103.5l205 -23q-5 -30 -8.5 -51.5
t-6 -38t-4 -29t-2.5 -24.5q-2 -63 7.5 -97.5t20.5 -43.5q7 -6 18.5 -9.5t22.5 -5t21 -1.5t16 2q17 6 23.5 10t12.5 10q21 19 27 36q13 39 6 84.5t-25.5 91.5t-43.5 88t-47 74l170 116q4 -6 20.5 -31.5t36.5 -62t40 -79.5t31 -83q4 -11 11 -37.5t11 -62.5t1.5 -78.5
t-17.5 -86.5q-23 -66 -82 -120q-17 -16 -40.5 -31.5t-67.5 -31.5q-18 -6 -40 -9.5t-46 -3.5q-48 0 -98.5 15t-91.5 48q-9 8 -17 16.5t-16 17.5l-18 -19q-81 -78 -207 -75q-64 2 -117 31.5t-88 83.5l-5 7l-23 -22q-50 -46 -113 -73t-131 -27q-21 0 -40 8.5t-33.5 22.5
t-22.5 33.5t-8 40.5z" />
    <glyph glyph-name="uFEB4" unicode="&#x633;" horiz-adv-x="1417" arabic-form="medial" 
d="M-110 104q0 21 8 40.5t22.5 33.5t33.5 22.5t40 8.5h5q53 2 102 42t89 123q25 50 40.5 102.5t28.5 106.5l202 -17q-2 -10 -6 -31.5t-8.5 -46t-8.5 -49.5t-5 -41q-5 -60 0.5 -105.5t20.5 -66.5q4 -6 11.5 -10.5t24.5 -6.5q45 -3 79 28q34 30 54 72.5t31.5 89t17.5 94.5
t12 90l204 -19q-3 -5 -5 -26.5t-3.5 -47t-2 -49.5t-0.5 -34q0 -46 5 -78t11 -53.5t12.5 -33t11.5 -16.5q5 -7 11.5 -10.5t19.5 -4.5q23 0 40.5 6.5t32.5 22.5q26 26 44 74t28 114q5 35 6 71t1 84l205 -12q0 -1 0.5 -11t-0.5 -27q1 -71 7.5 -121.5t15.5 -85t18.5 -55.5
t17.5 -33q15 -22 31.5 -25.5t29.5 -3.5q21 0 40 -8.5t33.5 -22.5t22.5 -33.5t8 -40.5t-8 -40t-22.5 -33.5t-33.5 -22.5t-40 -8q-70 0 -131 26.5t-103 89.5q-5 -7 -11 -13.5t-12 -13.5q-45 -46 -102.5 -68.5t-123.5 -20.5q-55 2 -101.5 24t-81.5 64q-10 11 -19 25
q-8 -10 -16.5 -18.5t-17.5 -16.5q-97 -88 -228 -80q-61 3 -109.5 29t-81.5 73q-4 5 -7.5 10.5t-6.5 11.5q-14 -15 -29 -29q-53 -49 -116 -70.5t-129 -22.5h-5q-21 0 -40 8t-33.5 22.5t-22.5 33.5t-8 40z" />
    <glyph glyph-name="u0634" unicode="&#x634;" horiz-adv-x="2131" arabic-form="isolated" 
d="M2017 591q65 -124 65 -243q0 -79 -20.5 -143t-59 -109t-93 -70t-123.5 -26q-122 -3 -209 98q-4 5 -8 10.5t-9 11.5q-11 -16 -26 -33q-38 -42 -87 -64t-106 -23q-63 -2 -123 27q-1 -17 -2.5 -32.5t-4.5 -29.5q-17 -87 -65.5 -163t-120.5 -134q-37 -29 -78.5 -51.5
t-86.5 -38.5q-47 -17 -96.5 -25.5t-100.5 -8.5q-223 0 -355 100q-27 20 -55 50.5t-50.5 72.5t-37 97.5t-14.5 126.5q0 194 71 350q26 59 50 90.5t29 37.5l150 -140l1 1q-7 -9 -15 -21q-7 -11 -15.5 -26.5t-17.5 -35.5q-48 -111 -48 -256q0 -127 75 -184q78 -58 232 -58
q73 0 132.5 22t104 58.5t72.5 82.5t38 94q9 44 -1 113.5t-38 157.5q-14 44 -32 84.5t-40 81.5l189 85q5 -6 16 -29.5t24.5 -52.5t27 -56.5t24.5 -40.5q42 -69 83.5 -106.5t73.5 -37.5q15 0 25.5 4.5t19.5 14.5q20 22 33.5 64t18.5 99q2 24 2.5 47.5t0.5 42.5t-0.5 31.5
t-0.5 14.5v1l204 1v-2q0 -2 2 -19t6.5 -43t12 -58.5t18.5 -65.5q5 -15 14 -37.5t22 -43.5t29.5 -36t35.5 -15h1q12 0 28.5 2.5t31.5 16t25.5 42.5t10.5 82q0 34 -10 68t-23.5 63t-27.5 51t-22 32l157 130q3 -3 23 -29.5t43 -71.5zM1826 928l-145 -151l-148 148l146 147z
M1516 924l-147 -146l-148 148l146 147zM1658 1137l-129 -128l-130 130l128 129z" />
    <glyph glyph-name="uFEB6" unicode="&#x634;" horiz-adv-x="2235" arabic-form="final" 
d="M2162 221q11 -11 32 -13.5t55 -2.5v-205h-53.5t-61.5 6q-37 8 -59 20.5t-41 26.5l-34 26q-3 -3 -6 -6.5t-7 -6.5q-45 -40 -100.5 -56.5t-118.5 -7.5h-6q-5 1 -21 5.5t-38.5 15.5t-49.5 29t-54 47l-7 8q-7 -9 -13.5 -17t-14.5 -16q-38 -40 -86.5 -57t-104.5 -17h-6
q-34 1 -66.5 12t-63.5 24q0 -160 -89 -275q-70 -91 -187 -145q-46 -21 -90 -33.5t-79 -19t-58 -8.5t-28 -2h-6q-36 1 -76 3.5t-81.5 10t-84 20.5t-82.5 34q-37 19 -76 50.5t-70.5 79t-51.5 112.5t-20 152t19 167t42.5 141.5t44 100t22.5 41.5l176 -104q0 -1 -7.5 -14.5
t-18.5 -37.5t-24 -56.5t-23.5 -70.5t-18 -80.5t-7.5 -86.5q0 -53 10.5 -89t26.5 -61t35 -39.5t36 -23.5q51 -26 113.5 -34.5t116.5 -9.5q6 0 23 2t42 7t54.5 14t59.5 23q78 37 115 93.5t37 138.5q0 21 -8 62.5t-21 98t-30.5 125t-35.5 143.5l202 55q18 -58 34 -100.5t31 -73
t29.5 -51t29.5 -35.5q48 -45 109 -46q27 0 44 18q25 25 37.5 62t18 77.5t6 81.5t1.5 74h205v-69.5t5.5 -72t19 -69t39.5 -60.5q17 -18 32.5 -26t19.5 -10q20 -2 31 2.5t18 11.5q20 18 36.5 58.5t24.5 96.5q4 51 5 79.5t3 54.5h205q0 -28 -2 -70t-0.5 -85.5t10.5 -83
t31 -63.5zM1883 924l-145 -151l-148 148l146 147zM1573 920l-147 -146l-148 148l146 147zM1715 1133l-129 -128l-130 130l128 129z" />
    <glyph glyph-name="uFEB7" unicode="&#x634;" horiz-adv-x="1260" arabic-form="initial" 
d="M1043 933l-145 -151l-148 148l146 147zM733 929l-147 -146l-148 148l146 147zM875 1142l-129 -128l-130 130l128 129zM-108 105q0 21 8 40t22.5 33.5t33.5 22.5t40 8q10 0 30 2.5t45 17t52 45.5t51 87q16 38 27 82.5t22 112.5l202 -23q-9 -83 -13 -140.5t4 -104.5
q1 -9 5 -23t11 -27t18 -23t28 -10q19 0 33 3t26 14t23.5 31t26.5 54q26 59 39 114.5t24 103.5l205 -23q-5 -30 -8.5 -51.5t-6 -38t-4 -29t-2.5 -24.5q-2 -63 7.5 -97.5t20.5 -43.5q7 -6 18.5 -9.5t22.5 -5t21 -1.5t16 2q17 6 23.5 10t12.5 10q21 19 27 36q13 39 6 84.5
t-25.5 91.5t-43.5 88t-47 74l170 116q4 -6 20.5 -31.5t36.5 -62t40 -79.5t31 -83q4 -11 11 -37.5t11 -62.5t1.5 -78.5t-17.5 -86.5q-23 -66 -82 -120q-17 -16 -40.5 -31.5t-67.5 -31.5q-18 -6 -40 -9.5t-46 -3.5q-48 0 -98.5 15t-91.5 48q-9 8 -17 16.5t-16 17.5l-18 -19
q-81 -78 -207 -75q-64 2 -117 31.5t-88 83.5l-5 7l-23 -22q-50 -46 -113 -73t-131 -27v1q-21 0 -40 8t-33.5 22.5t-22.5 33.5t-8 40z" />
    <glyph glyph-name="uFEB8" unicode="&#x634;" horiz-adv-x="1415" arabic-form="medial" 
d="M-13 0q-21 0 -40.5 8t-33.5 22t-22.5 33t-8.5 41t8.5 41t22.5 33t33.5 22.5t40.5 8.5h7q54 0 104.5 40t91.5 125q25 50 40.5 102.5t28.5 106.5l202 -17q-2 -10 -6 -31.5t-8.5 -46t-8.5 -49.5t-5 -41q-5 -60 0.5 -105.5t20.5 -66.5q4 -6 11.5 -10.5t24.5 -6.5q45 -3 79 28
q34 30 54 72.5t31.5 89t17.5 94.5t12 90l204 -19q-1 -7 -3 -28.5t-4 -47t-3 -48.5t-1 -33q0 -46 5 -78t11 -53.5t12.5 -33t11.5 -16.5q5 -7 11.5 -10.5t19.5 -4.5q23 0 40.5 6.5t32.5 22.5q26 26 44 74t28 114q5 35 6 71t1 84l205 -12v-38q1 -71 7.5 -122t15.5 -86.5
t18.5 -57.5t17.5 -34q7 -11 15 -16t16 -7t15.5 -1.5t13.5 0.5v-209q-70 0 -130 26t-100 87l-3 3q-5 -7 -11 -13.5t-12 -13.5q-45 -46 -102.5 -68.5t-123.5 -20.5q-55 2 -101.5 24t-81.5 64q-10 11 -19 25q-8 -10 -16.5 -18.5t-17.5 -16.5q-97 -88 -228 -80q-61 3 -109.5 29
t-81.5 73q-4 5 -7.5 10.5t-6.5 11.5q-14 -15 -29 -29q-54 -50 -118 -71.5t-132 -21.5h-7zM765 974l-147 -146l-148 148l146 147zM1075 978l-145 -151l-148 148l146 147zM907 1187l-129 -128l-130 130l128 129z" />
    <glyph glyph-name="u0635" unicode="&#x635;" horiz-adv-x="2182" arabic-form="isolated" 
d="M2095 349q-5 -71 -39.5 -138.5t-101 -120.5t-166.5 -85t-236 -32q-57 0 -103 3.5t-89 13t-85 25.5t-90 42q0 -121 -49 -235q-44 -101 -125 -169q-140 -119 -360 -119q-17 0 -36.5 0.5t-38.5 2.5q-74 8 -136 25t-113 49h1q-99 58 -148 158h1q-24 48 -35 101.5t-10 113.5
q1 48 8 96t20 102q11 45 27.5 89t33 81t31.5 65t23 41l176 -113q-6 -11 -24 -48.5t-37 -89.5t-34 -112t-15 -116q0 -32 5 -62.5t18 -55.5q24 -50 81.5 -78t144.5 -37q14 -1 27.5 -1.5t26.5 -0.5q72 0 129 17.5t99 50.5q25 23 42.5 51t29.5 57t18 57.5t8 52.5q1 9 1 17.5
v17.5q0 55 -10 112t-23.5 106.5t-26.5 87t-19 53.5q-1 2 -4 10t-6 17l-8 24l189 78q16 -41 31 -80.5t31.5 -73t34.5 -59t40 -38.5q28 46 68 101t94 106q66 62 147 104.5t160 57.5q23 4 42.5 5.5t36.5 1.5q75 0 139.5 -26.5t115.5 -78.5q46 -48 69.5 -106.5t18.5 -117.5z
M1509 356q-39 -38 -69 -79t-52 -76q37 -9 80.5 -14t90.5 -5q69 0 136 13.5t117 46.5q70 44 74 120q2 33 -17 55.5t-47.5 35t-59.5 15.5t-53 -4q-53 -9 -104 -37t-96 -71z" />
    <glyph glyph-name="uFEBA" unicode="&#x635;" horiz-adv-x="2136" arabic-form="final" 
d="M2135 0q-32 0 -66 5.5t-65 14t-55.5 19t-38.5 21.5q-45 -26 -92 -42.5t-93.5 -26t-91 -13t-85.5 -3.5q-57 0 -103 3.5t-89 13t-85 25.5t-90 42q0 -121 -49 -235q-44 -101 -125 -169q-140 -119 -360 -119q-17 0 -36.5 0.5t-38.5 2.5q-74 8 -136 25t-113 49h1
q-99 58 -148 158h1q-24 48 -35 101.5t-10 113.5q1 48 8 96t20 102q11 45 27.5 89t33 81t31.5 65t23 41l176 -113q-6 -11 -24 -48.5t-37 -89.5t-34 -112t-15 -116q0 -32 5 -62.5t18 -55.5q24 -50 81.5 -78t144.5 -37q14 -1 27.5 -1.5t26.5 -0.5q72 0 129 17.5t99 50.5
q25 23 42.5 51t29.5 57t18 57.5t8 52.5q1 9 1 17.5v17.5q0 55 -10 112t-23.5 106.5t-26.5 87t-19 53.5q-1 2 -4 10t-6 17l-8 24l189 78q36 -84 66.5 -138.5t55.5 -91.5q2 -4 5.5 -9t9.5 -12q28 46 68 101t94 106q66 62 147 104.5t160 57.5q23 4 42.5 5.5t36.5 1.5
q75 0 139.5 -26.5t115.5 -78.5q46 -48 68.5 -106.5t19.5 -117.5q-2 -36 -9.5 -68t-23.5 -63q16 -3 30 -6q12 -2 25 -3.5t23 -1.5q22 0 41 -8.5t33 -22.5t22 -33t8 -41t-8.5 -41t-22.5 -33t-33 -22t-41 -8zM1505 358q-39 -38 -69 -79t-52 -76q37 -9 80.5 -14t90.5 -5
q69 0 136 13.5t117 46.5q70 44 74 120q2 33 -17 55.5t-47.5 35t-59.5 15.5t-53 -4q-53 -9 -104 -37t-96 -71z" />
    <glyph glyph-name="uFEBB" unicode="&#x635;" horiz-adv-x="1399" arabic-form="initial" 
d="M-110 103q0 22 8.5 41t23 33.5t33.5 23t41 8.5q37 0 62.5 5t43 13t28 17.5t16.5 17.5q10 13 18 32.5t14.5 42t12 46.5t10.5 46q6 29 14.5 64.5t25.5 87.5l204 -61q-10 -26 -18 -56.5t-12.5 -61.5t-4.5 -59.5t6 -48.5q27 49 70.5 110.5t106.5 121.5q38 36 83 67t94.5 54
t103 36t109.5 13q64 0 127.5 -24.5t113 -68.5t78 -104.5t23.5 -132.5q-5 -74 -38 -136.5t-90 -110.5q-51 -41 -114.5 -67t-130 -41t-133.5 -21t-126 -6q-68 0 -118 4t-72 7q-65 8 -117 30q-26 13 -50.5 30t-50.5 45q-25 -25 -50 -43.5t-57 -31t-74.5 -19t-101.5 -6.5h-6
q-44 0 -75 29t-31 74zM739 374q-46 -44 -79 -91.5t-54 -85.5q20 -1 41 -1.5t43 -0.5q50 0 103 4.5t102.5 14.5t93 27t74.5 41q46 39 51 98q0 24 -13 43.5t-32.5 33t-43 21t-45.5 7.5q-19 0 -41 -3q-48 -5 -102 -35.5t-98 -72.5z" />
    <glyph glyph-name="uFEBC" unicode="&#x635;" horiz-adv-x="1369" arabic-form="medial" 
d="M-107 103q0 22 8 41.5t22 33.5t33 22.5t41 8.5h6q39 1 64 3.5t36 9.5q12 6 24.5 15t21.5 26q20 36 36.5 86t29 97.5t21 85t11.5 49.5l205 -62q-15 -49 -24 -92q-4 -19 -7 -38t-3.5 -37t1 -33.5t6.5 -26.5q27 50 71 112t106 123q67 65 147 105.5t162 56.5q23 3 42.5 5
t36.5 2q75 0 139.5 -27t115.5 -79q48 -47 69.5 -104.5t18.5 -118.5q-8 -91 -50 -158h89q22 0 41 -8.5t33 -22.5t22.5 -33.5t8.5 -41.5q0 -44 -30.5 -73.5t-74.5 -29.5h-174q-75 0 -123.5 4t-80.5 15q-75 -20 -150 -26t-142 -6q-98 0 -171 14t-123 33t-79 39.5t-39 32.5
q-20 -17 -42 -36t-54 -34.5t-79 -25.5t-118 -10q-44 0 -74 29.5t-30 73.5zM746 375q-47 -44 -80 -91.5t-54 -85.5q20 -2 41 -2h43q51 0 104.5 4t103.5 14t93.5 26.5t75.5 42.5h-1q48 40 52 98q2 22 -8.5 38.5t-19.5 24.5q-24 26 -52.5 34t-54.5 8q-9 0 -20.5 -0.5
t-21.5 -2.5q-51 -11 -104 -38.5t-97 -69.5z" />
    <glyph glyph-name="u0636" unicode="&#x636;" horiz-adv-x="2162" arabic-form="isolated" 
d="M1811 1017l-147 -146l-148 148l146 147zM2095 349q-5 -71 -39.5 -138.5t-101 -120.5t-166.5 -85t-236 -32q-57 0 -103 3.5t-89 13t-85 25.5t-90 42q0 -121 -49 -235q-44 -101 -125 -169q-140 -119 -360 -119q-17 0 -36.5 0.5t-38.5 2.5q-74 8 -136 25t-113 49h1
q-99 58 -148 158h1q-24 48 -35 101.5t-10 113.5q1 48 8 96t20 102q11 45 27.5 89t33 81t31.5 65t23 41l176 -113q-6 -11 -24 -48.5t-37 -89.5t-34 -112t-15 -116q0 -32 5 -62.5t18 -55.5q24 -50 81.5 -78t144.5 -37q14 -1 27.5 -1.5t26.5 -0.5q72 0 129 17.5t99 50.5
q25 23 42.5 51t29.5 57t18 57.5t8 52.5q1 9 1 17.5v17.5q0 55 -10 112t-23.5 106.5t-26.5 87t-19 53.5q-1 2 -4 10t-6 17l-8 24l189 78q16 -41 31 -80.5t31.5 -73t34.5 -59t40 -38.5q28 46 68 101t94 106q66 62 147 104.5t160 57.5q23 4 42.5 5.5t36.5 1.5q75 0 139.5 -26.5
t115.5 -78.5q46 -48 69.5 -106.5t18.5 -117.5zM1509 356q-39 -38 -69 -79t-52 -76q37 -9 80.5 -14t90.5 -5q69 0 136 13.5t117 46.5q70 44 74 120q2 33 -17 55.5t-47.5 35t-59.5 15.5t-53 -4q-53 -9 -104 -37t-96 -71z" />
    <glyph glyph-name="uFEBE" unicode="&#x636;" horiz-adv-x="2135" arabic-form="final" 
d="M1815 1009l-147 -146l-148 148l146 147zM2135 0q-32 0 -66 5.5t-65 14t-55.5 19t-38.5 21.5q-45 -26 -92 -42.5t-93.5 -26t-91 -13t-85.5 -3.5q-57 0 -103 3.5t-89 13t-85 25.5t-90 42q0 -121 -49 -235q-44 -101 -125 -169q-140 -119 -360 -119q-17 0 -36.5 0.5
t-38.5 2.5q-74 8 -136 25t-113 49h1q-99 58 -148 158h1q-24 48 -35 101.5t-10 113.5q1 48 8 96t20 102q11 45 27.5 89t33 81t31.5 65t23 41l176 -113q-6 -11 -24 -48.5t-37 -89.5t-34 -112t-15 -116q0 -32 5 -62.5t18 -55.5q24 -50 81.5 -78t144.5 -37q14 -1 27.5 -1.5
t26.5 -0.5q72 0 129 17.5t99 50.5q25 23 42.5 51t29.5 57t18 57.5t8 52.5q1 9 1 17.5v17.5q0 55 -10 112t-23.5 106.5t-26.5 87t-19 53.5q-1 2 -4 10t-6 17l-8 24l189 78q36 -84 66.5 -138.5t55.5 -91.5q2 -4 5.5 -9t9.5 -12q28 46 68 101t94 106q66 62 147 104.5t160 57.5
q23 4 42.5 5.5t36.5 1.5q75 0 139.5 -26.5t115.5 -78.5q46 -48 68.5 -106.5t19.5 -117.5q-2 -36 -9.5 -68t-23.5 -63q16 -3 30 -6q12 -2 25 -3.5t23 -1.5q22 0 41 -8.5t33 -22.5t22 -33t8 -41t-8.5 -41t-22.5 -33t-33 -22t-41 -8zM1505 358q-39 -38 -69 -79t-52 -76
q37 -9 80.5 -14t90.5 -5q69 0 136 13.5t117 46.5q70 44 74 120q2 33 -17 55.5t-47.5 35t-59.5 15.5t-53 -4q-53 -9 -104 -37t-96 -71z" />
    <glyph glyph-name="uFEBF" unicode="&#x636;" horiz-adv-x="1420" arabic-form="initial" 
d="M1056 1012l-147 -146l-148 148l146 147zM-110 103q0 22 8.5 41t23 33.5t33.5 23t41 8.5q37 0 62.5 5t43 13t28 17.5t16.5 17.5q10 13 18 32.5t14.5 42t12 46.5t10.5 46q6 29 14.5 64.5t25.5 87.5l204 -61q-10 -26 -18 -56.5t-12.5 -61.5t-4.5 -59.5t6 -48.5
q27 49 70.5 110.5t106.5 121.5q38 36 83 67t94.5 54t103 36t109.5 13q64 0 127.5 -24.5t113 -68.5t78 -104.5t23.5 -132.5q-5 -74 -38 -136.5t-90 -110.5q-51 -41 -114.5 -67t-130 -41t-133.5 -21t-126 -6q-68 0 -118 4t-72 7q-65 8 -117 30q-26 13 -50.5 30t-50.5 45
q-25 -25 -50 -43.5t-57 -31t-74.5 -19t-101.5 -6.5h-6q-44 0 -75 29t-31 74zM739 374q-46 -44 -79 -91.5t-54 -85.5q20 -1 41 -1.5t43 -0.5q50 0 103 4.5t102.5 14.5t93 27t74.5 41q46 39 51 98q0 24 -13 43.5t-32.5 33t-43 21t-45.5 7.5q-19 0 -41 -3q-48 -5 -102 -35.5
t-98 -72.5z" />
    <glyph glyph-name="uFEC0" unicode="&#x636;" horiz-adv-x="1372" arabic-form="medial" 
d="M1076 1014l-147 -146l-148 148l146 147zM-107 103q0 22 8 41.5t22 33.5t33 22.5t41 8.5h6q39 1 64 3.5t36 9.5q12 6 24.5 15t21.5 26q20 36 36.5 86t29 97.5t21 85t11.5 49.5l205 -62q-15 -49 -24 -92q-4 -19 -7 -38t-3.5 -37t1 -33.5t6.5 -26.5q27 50 71 112t106 123
q67 65 147 105.5t162 56.5q23 3 42.5 5t36.5 2q75 0 139.5 -27t115.5 -79q48 -47 69.5 -104.5t18.5 -118.5q-8 -91 -50 -158h89q22 0 41 -8.5t33 -22.5t22.5 -33.5t8.5 -41.5q0 -44 -30.5 -73.5t-74.5 -29.5h-174q-75 0 -123.5 4t-80.5 15q-75 -20 -150 -26t-142 -6
q-98 0 -171 14t-123 33t-79 39.5t-39 32.5q-20 -17 -42 -36t-54 -34.5t-79 -25.5t-118 -10q-44 0 -74 29.5t-30 73.5zM746 375q-47 -44 -80 -91.5t-54 -85.5q20 -2 41 -2h43q51 0 104.5 4t103.5 14t93.5 26.5t75.5 42.5h-1q48 40 52 98q2 22 -8.5 38.5t-19.5 24.5
q-24 26 -52.5 34t-54.5 8q-9 0 -20.5 -0.5t-21.5 -2.5q-51 -11 -104 -38.5t-97 -69.5z" />
    <glyph glyph-name="u0637" unicode="&#x637;" horiz-adv-x="1223" arabic-form="isolated" 
d="M537 181q161 11 265.5 37t141.5 79q23 33 26 63t-4 53.5t-18.5 39t-17.5 20.5q-22 17 -46.5 25t-53.5 0q-46 -12 -89 -48t-81 -82.5t-69.5 -96.5t-53.5 -90zM485 1205q0 -3 3.5 -39.5t8 -98t9.5 -144t10 -176.5q2 -63 3.5 -117t2.5 -107q63 72 127 114t129 59
q20 5 39.5 7.5t39.5 2.5q104 0 197 -70q41 -32 71 -80t43 -103q6 -24 8 -54.5t-3 -65.5t-19 -73t-41 -78q-47 -68 -125 -111t-196 -66q-17 -3 -43 -6t-59.5 -6t-73 -4.5t-82.5 -1.5q-28 0 -72.5 0.5t-101.5 4t-125 11t-143 22.5l28 185q35 -6 66.5 -10.5t55.5 -6.5
q28 -4 53 -5q1 0 5.5 28.5t8 88t4.5 151.5t-5 220q-4 93 -10 179.5t-11.5 153.5t-9.5 107.5t-4 41.5z" />
    <glyph glyph-name="uFEC2" unicode="&#x637;" horiz-adv-x="1342" arabic-form="final" 
d="M1358 0q-151 0 -260.5 2.5t-179.5 5.5l-17 -3q-17 -3 -43 -6t-59.5 -6t-73 -4.5t-82.5 -1.5q-28 0 -73.5 0.5t-104 4.5t-127.5 11.5t-144 22.5l35 181q35 -6 66.5 -10.5t55.5 -7.5q28 -4 53 -6q1 0 5.5 29t8 89.5t4.5 153.5t-5 221q-4 93 -10 179.5t-11.5 153.5
t-9.5 107.5t-4 41.5l212 47q0 -3 3.5 -39.5t8 -98t9.5 -144t10 -176.5q2 -63 3.5 -117t2.5 -107q63 72 127 114t129 59q20 5 39.5 7.5t39.5 2.5q104 0 197 -70q41 -32 71 -80t43 -103q5 -23 7.5 -50.5t-0.5 -58.5t-13.5 -65t-31.5 -70h119q21 0 40.5 -8.5t33.5 -22.5
t22.5 -33t8.5 -41t-8.5 -41t-22.5 -33t-33.5 -22t-40.5 -8zM646 181q161 11 265.5 37t141.5 79q23 33 26 63t-4 53.5t-18.5 39t-17.5 20.5q-22 17 -46.5 25t-53.5 0q-46 -12 -89 -48t-81 -82.5t-69.5 -96.5t-53.5 -90z" />
    <glyph glyph-name="uFEC3" unicode="&#x637;" horiz-adv-x="1000" arabic-form="initial" 
d="M-13 0q-21 0 -40.5 8t-33.5 22t-22.5 33t-8.5 41t8.5 41t22.5 33t33.5 22.5t40.5 8.5h106q6 25 11 68.5t8 110.5t3 161t-6 222q-4 93 -10 166t-11 123.5t-9 77.5t-4 28l205 26q0 -3 4 -32.5t9 -82t10.5 -127.5t9.5 -170q1 -31 2.5 -66t2 -69.5t1.5 -66.5t1 -58
q31 36 63 70t64 62t64.5 48.5t64.5 29.5q72 19 142.5 3.5t133.5 -64.5q41 -31 71 -79t43 -104q5 -24 7.5 -56t-2.5 -68.5t-19 -76t-41 -79.5q-23 -33 -55 -59t-72 -46.5t-88.5 -37.5t-105.5 -33q-48 -14 -108 -20t-133.5 -8.5t-161 -2t-191.5 0.5h-9zM742 331q23 33 26 63
t-4 53t-18.5 39t-17.5 21q-22 17 -40 22.5t-33 5.5q-8 0 -14.5 -1t-12.5 -3q-53 -14 -115 -73t-126 -157q-14 -23 -27.5 -44.5t-24.5 -41.5q160 10 265 36.5t142 79.5z" />
    <glyph glyph-name="uFEC4" unicode="&#x637;" horiz-adv-x="1094" arabic-form="medial" 
d="M388 303q-30 -47 -52 -87q141 9 238 30v3h1q1 0 2 -0.5t3 -0.5q60 14 101.5 35t61.5 50q41 59 20 118q-8 21 -19.5 37t-18.5 23q-21 15 -38 20.5t-31 5.5q-8 0 -14.5 -1t-12.5 -3q-53 -14 -115 -73t-126 -157zM-13 0q-21 0 -40.5 8t-33.5 22t-22.5 33t-8.5 41t8.5 41
t22.5 33t33.5 22.5t40.5 8.5h5h51.5t50.5 1q6 25 11 68.5t8 110.5t3 161.5t-6 222.5q-4 93 -9.5 164.5t-10.5 121t-8.5 76t-3.5 27.5l202 39q0 -3 4 -33.5t9 -84.5t11 -130t10 -171q1 -31 2.5 -66t2 -70t1.5 -67.5t1 -58.5q31 36 63 70.5t64 63t64 49t65 28.5
q72 19 142.5 3.5t133.5 -63.5q6 -5 17.5 -16t25 -28.5t28 -40.5t26.5 -51q29 -71 24 -145q-3 -45 -18.5 -86t-43.5 -83q-1 -2 -4.5 -5.5l-4.5 -4.5q45 -2 97.5 -2h103.5v-209q-186 -2 -314.5 7.5t-191.5 19.5q-98 -18 -249 -23.5t-357 -3.5h-5z" />
    <glyph glyph-name="u0638" unicode="&#x638;" horiz-adv-x="1249" arabic-form="isolated" 
d="M1005 1021l-147 -146l-148 148l146 147zM537 181q161 11 265.5 37t141.5 79q23 33 26 63t-4 53.5t-18.5 39t-17.5 20.5q-22 17 -46.5 25t-53.5 0q-46 -12 -89 -48t-81 -82.5t-69.5 -96.5t-53.5 -90zM485 1205q0 -3 3.5 -39.5t8 -98t9.5 -144t10 -176.5q2 -63 3.5 -117
t2.5 -107q63 72 127 114t129 59q20 5 39.5 7.5t39.5 2.5q104 0 197 -70q41 -32 71 -80t43 -103q6 -24 8 -54.5t-3 -65.5t-19 -73t-41 -78q-47 -68 -125 -111t-196 -66q-17 -3 -43 -6t-59.5 -6t-73 -4.5t-82.5 -1.5q-28 0 -72.5 0.5t-101.5 4t-125 11t-143 22.5l28 173
q35 -6 66.5 -10.5t55.5 -7.5q28 -4 53 -6q1 0 5.5 30.5t8 92.5t4.5 156.5t-5 222.5q-4 93 -10 179.5t-11.5 153.5t-9.5 107.5t-4 41.5z" />
    <glyph glyph-name="uFEC6" unicode="&#x638;" horiz-adv-x="1319" arabic-form="final" 
d="M1034 1062l-147 -146l-148 148l146 147zM1330 0q-151 0 -260.5 2.5t-179.5 5.5l-17 -3q-17 -3 -43 -6t-59.5 -6t-73 -4.5t-82.5 -1.5q-28 0 -73.5 0.5t-104 4.5t-127.5 11.5t-144 22.5l35 181q35 -6 66.5 -10.5t55.5 -7.5q28 -4 53 -6q1 0 5.5 29t8 89.5t4.5 153.5
t-5 221q-4 93 -10 179.5t-11.5 153.5t-9.5 107.5t-4 41.5l212 47q0 -3 3.5 -39.5t8 -98t9.5 -144t10 -176.5q2 -63 3.5 -117t2.5 -107q63 72 127 114t129 59q20 5 39.5 7.5t39.5 2.5q104 0 197 -70q41 -32 71 -80t43 -103q5 -23 7.5 -50.5t-0.5 -58.5t-13.5 -65t-31.5 -70
h119q21 0 40.5 -8.5t33.5 -22.5t22.5 -33t8.5 -41t-8.5 -41t-22.5 -33t-33.5 -22t-40.5 -8zM618 181q161 11 265.5 37t141.5 79q23 33 26 63t-4 53.5t-18.5 39t-17.5 20.5q-22 17 -46.5 25t-53.5 0q-46 -12 -89 -48t-81 -82.5t-69.5 -96.5t-53.5 -90z" />
    <glyph glyph-name="uFEC7" unicode="&#x638;" horiz-adv-x="1002" arabic-form="initial" 
d="M-13 0q-21 0 -40.5 8t-33.5 22t-22.5 33t-8.5 41t8.5 41t22.5 33t33.5 22.5t40.5 8.5h106q6 25 11 68.5t8 110.5t3 161t-6 222q-4 93 -10 166.5t-11 125t-9 79t-4 28.5l205 26q0 -3 4 -33t9 -83.5t10.5 -129t9.5 -170.5q1 -31 2.5 -66t2 -69.5t1.5 -66.5t1 -58
q31 36 63 70t64 62t64.5 48.5t64.5 29.5q72 19 142.5 3.5t133.5 -64.5q41 -31 71 -79t43 -104q5 -24 7.5 -56t-2.5 -68.5t-19 -76t-41 -79.5q-23 -33 -54.5 -59.5t-71 -47.5t-88.5 -38t-107 -31q-48 -12 -108.5 -18t-134 -9t-161.5 -3h-192h-7zM742 331q23 33 26 63t-4 53
t-18.5 39t-17.5 21q-22 17 -40 22.5t-33 5.5q-8 0 -14.5 -1t-12.5 -3q-53 -14 -115 -73t-126 -157q-14 -23 -27.5 -44.5t-24.5 -41.5q160 10 265 36.5t142 79.5zM786 1071l-147 -146l-148 148l146 147z" />
    <glyph glyph-name="uFEC8" unicode="&#x638;" horiz-adv-x="1094" arabic-form="medial" 
d="M-13 0q-21 0 -40.5 8t-33.5 22t-22.5 33t-8.5 41t8.5 41t22.5 33t33.5 22.5t40.5 8.5h8h50t49 1q6 25 11 68.5t8 110.5t3 161.5t-6 222.5q-4 93 -9.5 165t-10.5 122t-8.5 76.5t-3.5 27.5l203 33q0 -3 3.5 -33t9 -83t11 -128.5t9.5 -170.5q1 -31 2.5 -66t2 -70t1.5 -67.5
t1 -58.5q31 36 63 70.5t64 63t64 49t65 28.5q72 19 142.5 3.5t133.5 -63.5q6 -5 17.5 -16t25 -28.5t28 -40.5t26.5 -51q29 -71 24 -145q-3 -45 -20 -93.5t-46 -85.5q42 -2 93 -2h102v-209q-92 -1 -173 3.5t-147.5 10.5t-117 13t-81.5 12q-98 -18 -241 -29.5t-348 -9.5h-8z
M388 303q-30 -47 -52 -87q141 9 238 30l6 2q60 14 101.5 35t61.5 50q41 59 20 118q-8 21 -19.5 37t-18.5 23q-21 15 -38 20.5t-31 5.5q-8 0 -14.5 -1t-12.5 -3q-53 -14 -115 -73t-126 -157zM786 1071l-147 -146l-148 148l146 147z" />
    <glyph glyph-name="u0639" unicode="&#x639;" horiz-adv-x="1050" arabic-form="isolated" 
d="M969 -440l82 -188q-76 -33 -144 -53t-128.5 -31t-113 -14.5t-96.5 -3.5h-6q-249 0 -384 121q-34 30 -56 62.5t-35 62.5t-19 56.5t-8 45.5q-10 103 18 193t93 164q28 32 58 56.5t59 42.5q-11 9 -21.5 18t-18.5 17q-49 50 -73.5 111.5t-19.5 125.5q5 78 43.5 144t105.5 114
q56 41 125 62.5t139 21.5q47 0 96 -7.5t89.5 -16t67.5 -16t29 -8.5l-29 -98l-30 -98l-22 6t-55 13.5t-72.5 13.5t-75.5 6q-38 0 -75.5 -12t-67.5 -33q-20 -15 -40.5 -41t-22.5 -65v-11t3 -18.5t10 -23.5t20 -26q35 -34 95 -50t139 -11l251 12l-78 -183q-104 -13 -193 -33.5
t-143 -38.5q-14 -5 -35 -15.5t-45 -28t-47.5 -42.5t-41.5 -58t-27 -74.5t-4 -92.5q1 -12 10 -39.5t40 -54.5q38 -34 100.5 -51.5t147.5 -17.5h5q39 0 83 3t94 12t105.5 25.5t118.5 44.5z" />
    <glyph glyph-name="uFECA" unicode="&#x639;" horiz-adv-x="1149" arabic-form="final" 
d="M1148 -440q-229 -96 -420 -107q-11 -1 -22 -1h-22q-142 0 -256 49q-63 27 -116.5 67.5t-95.5 93.5q-32 40 -46.5 69.5t-16.5 35.5l-1 5q-31 95 -26.5 179.5t42.5 157.5q51 98 161 164q54 34 127 60l-147 133l-2 149q3 3 18 16t40 31t59.5 38t77.5 37q121 48 239.5 39.5
t229.5 -73.5q29 -17 47.5 -36.5t29 -39t14.5 -37t5 -30.5q3 -40 -10.5 -75.5t-36.5 -67t-51.5 -58t-54.5 -47.5q-4 -3 -23 -16t-55 -33q27 -19 69 -30.5t88 -17.5t89 -7.5t73 -1.5v-206q-23 0 -60.5 1t-83 6t-96 15.5t-100.5 29.5t-97 48.5t-85 71.5l-2 2q-19 -7 -38.5 -13
t-40.5 -13q-27 -8 -57 -20t-57.5 -28.5t-51 -38t-37.5 -48.5q-37 -68 -4 -174q3 -6 13 -23.5t30 -40t50.5 -46t73.5 -41.5q103 -42 244 -26.5t312 87.5zM578 547q-10 -4 -18.5 -8t-16.5 -8l131 -120q57 26 84 43t28 18q27 22 42.5 37.5t23.5 25.5q-131 69 -274 12z" />
    <glyph glyph-name="uFECB" unicode="&#x639;" horiz-adv-x="786" arabic-form="initial" 
d="M-13 0q-21 0 -40.5 8t-33.5 22t-22.5 33t-8.5 41t8.5 41t22.5 33t33.5 22.5t40.5 8.5h13v1h63t64 1q-50 73 -53 168q-2 61 20 114.5t64 97.5q32 33 70.5 55.5t78 36.5t78.5 20t72 6q57 0 112.5 -16t106.5 -47q37 -22 58 -41.5t25 -24.5l-152 -137q-3 3 -14.5 13t-31 20.5
t-46 19t-58.5 8.5q-43 0 -85.5 -15.5t-66.5 -40.5q-26 -26 -26 -64q1 -38 13.5 -56.5t24.5 -27.5q10 -8 32 -19t61 -17.5t97 -6.5t139 13q18 3 39.5 6.5t41 6.5t33 5l13.5 2l-54 -200q-10 -2 -27.5 -6t-36.5 -7.5t-36 -7t-26 -5.5q-51 -10 -113 -21.5t-136 -21t-160 -15.5
t-184 -6h-13z" />
    <glyph glyph-name="uFECC" unicode="&#x639;" horiz-adv-x="828" arabic-form="medial" 
d="M-13 0q-21 0 -40.5 8t-33.5 22t-22.5 33t-8.5 41t8.5 41t22.5 33t33.5 22.5t40.5 8.5h10q14 0 45.5 0.5t67.5 1.5t69.5 2.5t50.5 3.5q14 2 23.5 3.5t20.5 5.5l-7 6q-44 38 -81 72t-64.5 59.5t-43.5 41t-17 17.5l-32 125q2 4 6 15t13 27t23.5 34.5t37.5 38.5
q21 17 48.5 35t64.5 33t82.5 24.5t102.5 9.5h1q24 0 66 -1.5t89 -9.5q137 -22 197 -102q10 -14 19 -32.5t14 -42.5t3.5 -52.5t-11.5 -61.5l-7 -19q-1 -2 -11 -18.5t-28.5 -43t-44 -61t-58.5 -71.5q-7 -8 -13.5 -14.5t-12.5 -14.5q16 -9 25 -10h21.5t51.5 -0.5t68 -0.5h70
v-209h-68.5h-68t-54 0.5t-27.5 0.5q-14 0 -31.5 3.5t-40 12t-51 23.5t-64.5 39q-50 -29 -100 -48.5t-101 -25.5q-25 -3 -64 -4t-77 -1h-67.5h-34.5h-10zM592 531q-5 4 -20.5 10t-47.5 11q-33 5 -64.5 6t-52.5 1h-1q-99 0 -160 -46q26 -26 60 -57.5t72 -64.5l63 -54
q11 11 21.5 22t19.5 22q43 48 71 90t39 60z" />
    <glyph glyph-name="u063A" unicode="&#x63a;" horiz-adv-x="1050" arabic-form="isolated" 
d="M1051 -628q-76 -33 -144 -53t-128.5 -31t-113 -14.5t-96.5 -3.5h-6q-249 0 -384 121q-34 30 -56 62.5t-35 62.5t-19 56.5t-8 45.5q-10 103 18 193t93 164q28 32 58 56.5t59 42.5q-11 9 -21.5 18t-18.5 17q-49 50 -73.5 111.5t-19.5 125.5q5 78 43.5 144t105.5 114
q56 41 125 62.5t139 21.5q47 0 96 -7.5t89.5 -16t67.5 -16t29 -8.5l-29 -98l-30 -98l-22 6t-55 13.5t-72.5 13.5t-75.5 6q-38 0 -75.5 -12t-67.5 -33q-20 -15 -40.5 -41t-22.5 -65v-11t3 -18.5t10 -23.5t20 -26q35 -34 95 -50t139 -11l251 12l-78 -183q-104 -13 -193 -33.5
t-143 -38.5q-14 -5 -35 -15.5t-45 -28t-47.5 -42.5t-41.5 -58t-27 -74.5t-4 -92.5q1 -12 10 -39.5t40 -54.5q38 -34 100.5 -51.5t147.5 -17.5h5q39 0 83 3t94 12t105.5 25.5t118.5 44.5zM678 1029l-147 -146l-148 148l146 147z" />
    <glyph glyph-name="uFECE" unicode="&#x63a;" horiz-adv-x="1146" arabic-form="final" 
d="M1148 -440q-229 -96 -420 -107q-11 -1 -22 -1h-22q-142 0 -256 49q-63 27 -116.5 67.5t-95.5 93.5q-32 40 -46.5 69.5t-16.5 35.5l-1 5q-31 95 -26.5 179.5t42.5 157.5q51 98 161 164q54 34 127 60l-147 133l-2 149q3 3 18 16t40 31t59.5 38t77.5 37q121 48 239.5 39.5
t229.5 -73.5q29 -17 47.5 -36.5t29 -39t14.5 -37t5 -30.5q3 -40 -10.5 -75.5t-36.5 -67t-51.5 -58t-54.5 -47.5q-4 -3 -23 -16t-55 -33q27 -19 69 -30.5t88 -18t89 -8.5t73 -2v-204q-23 0 -60.5 1t-83 6t-96 15.5t-100.5 29.5t-97 48.5t-85 71.5l-2 2q-19 -7 -38.5 -13
t-40.5 -13q-27 -8 -57 -20t-57.5 -28.5t-51 -38t-37.5 -48.5q-37 -68 -4 -174q3 -6 13 -23.5t30 -40t50.5 -46t73.5 -41.5q103 -42 244 -26.5t312 87.5zM578 547q-10 -4 -18.5 -8t-16.5 -8l131 -120q57 26 84 43t28 18q27 22 42.5 37.5t23.5 25.5q-131 69 -274 12zM826 1071
l-147 -146l-148 148l146 147z" />
    <glyph glyph-name="uFECF" unicode="&#x63a;" horiz-adv-x="802" arabic-form="initial" 
d="M-13 0q-21 0 -40.5 8t-33.5 22t-22.5 33t-8.5 41t8.5 41t22.5 33t33.5 22.5t40.5 8.5h3q34 0 70 0.5t69 -0.5q-25 36 -38 77t-15 90q-2 61 20 114.5t64 97.5q32 33 70.5 55.5t78 36.5t78.5 20t72 6q57 0 112.5 -16t106.5 -47q37 -22 58 -41.5t25 -24.5l-152 -137
q-3 3 -14.5 13t-31 20.5t-46 19t-58.5 8.5q-43 0 -85.5 -15.5t-66.5 -40.5q-26 -26 -26 -64q1 -38 13.5 -56.5t24.5 -27.5q10 -8 32 -19t61 -17.5t97 -6.5t139 13q18 3 39.5 6.5t41 6.5t33 5l13.5 2l-54 -200q-10 -2 -27.5 -6t-36.5 -7.5t-36 -7t-26 -5.5q-51 -10 -115 -21
t-140.5 -20t-164 -14.5t-185.5 -5.5h-3zM562 1014l-147 -146l-148 148l146 147z" />
    <glyph glyph-name="uFED0" unicode="&#x63a;" horiz-adv-x="822" arabic-form="medial" 
d="M-10 0q-21 0 -40.5 8t-33.5 22t-22.5 33t-8.5 41t8.5 41t22.5 33t33.5 22.5t40.5 8.5h5h45h66t67.5 1t49.5 3q21 1 44 9q-2 1 -3.5 2.5l-3.5 3.5q-44 38 -81 72.5t-64.5 61t-43.5 42.5t-17 18l-32 125q2 4 6 15t13 27t23.5 34.5t37.5 38.5q21 17 48.5 35t64.5 33
t82.5 24.5t102.5 9.5h1q24 0 66 -1.5t89 -9.5q137 -22 197 -102q10 -14 19 -32.5t14 -42.5t3.5 -52.5t-11.5 -61.5l-7 -19q-1 -2 -11 -19t-28.5 -44.5t-44 -62.5t-58.5 -72q-7 -8 -13.5 -14.5t-12.5 -14.5q13 -3 40 -4t60 -2t66.5 -1h59.5v-209h-67h-64.5t-50.5 0.5t-26 0.5
q-14 0 -31.5 3.5t-40 12t-51 23.5t-64.5 39q-50 -29 -100 -50t-101 -27q-25 -3 -63.5 -3.5t-75.5 0t-65.5 1t-33.5 0.5h-5zM554 1074l-147 -146l-148 148l146 147zM585 531q-5 4 -20.5 10t-47.5 11q-33 5 -64.5 6t-52.5 1h-1q-99 0 -160 -46q26 -26 60 -57.5t72 -64.5
l63 -54q11 11 21.5 22t19.5 22q43 48 71 90t39 60z" />
    <glyph glyph-name="u0641" unicode="&#x641;" horiz-adv-x="1529" arabic-form="isolated" 
d="M1449 594q41 -119 26 -274q-2 -21 -7 -52.5t-21.5 -65.5t-48 -67.5t-85.5 -59.5q-83 -40 -226 -58.5t-367 -18.5h-1q-46 0 -117.5 2.5t-148.5 18.5q-207 42 -296 175q-122 180 2 480l190 -78q-14 -34 -26 -72.5t-17.5 -77.5t-1.5 -74.5t23 -63.5q18 -26 47 -44t64.5 -30
t75 -18.5t77 -9.5t71 -3.5t57.5 -0.5h1q385 0 504 58q14 6 23 13q-2 0 -3.5 -0.5t-3.5 -0.5q-69 -14 -124 -10.5t-97.5 17t-73.5 34t-52 42.5q-23 24 -40 56t-27 69q-21 80 0 156q6 23 20.5 52.5t42 59.5t70 56.5t105.5 43.5q25 6 57 6t67.5 -9t72 -27.5t70.5 -47.5
q80 -68 118 -176zM1198 472q39 8 68 18q-16 75 -61 118q-28 26 -54.5 34.5t-35.5 6.5q-78 -20 -92 -68q-7 -26 1 -50t16 -33q14 -15 33.5 -22t40.5 -9t43 0t41 5zM1247 1175l-147 -146l-148 148l146 147z" />
    <glyph glyph-name="uFED2" unicode="&#x641;" horiz-adv-x="1525" arabic-form="final" 
d="M1320 1074l-147 -146l-148 148l146 147zM1407 207q18 0 47 -0.5t82 0.5v-207h-48h-57.5t-67 2t-74.5 7t-79 16l-28 8t-27 9q-162 -57 -385 -57h-24t-24 1h-54q-51 -1 -111 1t-123 14q-165 33 -252 141q-68 83 -85 210q-8 64 -3.5 137t24.5 158l200 -43
q-9 -41 -15.5 -87.5t-5.5 -91.5t10.5 -85t33.5 -69q25 -31 63.5 -47.5t83 -24t91 -8t87.5 -0.5h32t30 -1q61 -2 112.5 1t96.5 9q-10 14 -19.5 27.5t-17.5 28.5q-17 31 -28.5 70.5t-14.5 82.5q-4 54 5.5 102t31.5 90q37 66 104 106q71 42 163 46q32 2 68.5 -6t71.5 -24
q85 -40 136 -112q47 -70 50 -153q4 -87 -40 -187q-5 -11 -14.5 -27.5t-25.5 -36.5zM1260 355q40 90 9 138q-10 15 -23.5 25.5t-27.5 17t-26.5 10t-18.5 3.5q-29 -2 -47 -8t-29 -13t-16 -14t-7 -11q-9 -17 -11.5 -38.5t-1 -42t6.5 -38t10 -26.5q17 -29 38 -51.5t44 -39.5
q30 16 49 31.5t30.5 28t16 20.5z" />
    <glyph glyph-name="uFED3" unicode="&#x641;" horiz-adv-x="757" arabic-form="initial" 
d="M483 1110l-147 -146l-148 148l146 147zM221 209q53 0 94 4.5t71 12t51.5 18.5t35.5 25q-29 -5 -59.5 -8t-62.5 -3q-44 0 -87 8t-81 28l1 -1q-42 21 -71 50.5t-47 63t-26.5 70.5t-8.5 73q0 45 12 87t32 75q16 25 42 51.5t59 47.5t73 34.5t85 13.5q52 0 107.5 -20.5
t112.5 -68.5q42 -37 72 -85.5t48.5 -101t27 -106.5t8.5 -101q0 -50 -8.5 -92t-22.5 -70q-19 -37 -52 -75t-86.5 -69t-132 -50.5t-187.5 -19.5h-230q-21 0 -40 8.5t-33.5 22.5t-22.5 33.5t-8 40.5t8 40t22.5 33.5t33.5 22.5t40 8h230zM351 458q41 0 80 6.5t67 14.5
q-10 41 -28 77.5t-46 61.5q-26 23 -48.5 32t-41.5 9q-31 0 -54.5 -17t-34.5 -36q-14 -22 -14 -56q0 -23 10 -45t35 -35q13 -7 32.5 -9.5t42.5 -2.5z" />
    <glyph glyph-name="uFED4" unicode="&#x641;" horiz-adv-x="901" arabic-form="medial" 
d="M583 1071l-147 -146l-148 148l146 147zM911 0q-106 0 -198 3t-178 23q-27 7 -53 14.5t-50 16.5q-91 -32 -203 -45.5t-240 -11.5h-7q-21 0 -40 8.5t-33.5 22.5t-22.5 33.5t-8 40.5t8 40t22.5 33.5t33.5 22.5t40 8h7q63 0 120 1t101 7q-10 13 -18.5 24.5t-16.5 25.5
q-17 30 -28.5 70t-14.5 82q-8 109 37 192q38 68 104 107q68 40 163 46q32 2 68.5 -6t71.5 -25q86 -40 135 -112q46 -67 51 -153q4 -87 -40 -187q-5 -11 -16.5 -27.5t-31.5 -39.5q58 -6 115 -5.5t122 0.5v-209zM535 366q41 89 8 138q-9 15 -23 25t-28 17t-26 10t-18 3
q-29 -2 -47 -7.5t-29 -13t-16 -14.5t-7 -11q-9 -17 -11.5 -38.5t-1 -42t6.5 -38t10 -26.5q15 -27 36.5 -48t47.5 -38q49 26 71.5 50.5t26.5 33.5z" />
    <glyph glyph-name="u0642" unicode="&#x642;" horiz-adv-x="1306" arabic-form="isolated" 
d="M1222 407q19 -73 27 -164.5t4 -200.5q-2 -65 -15.5 -139t-55.5 -146q-106 -184 -369 -231q-22 -3 -48.5 -5t-56.5 -2q-49 0 -105 7t-112.5 22.5t-111 42t-100.5 65.5q-75 64 -114 150.5t-39 191.5q0 56 9 112.5t23 109t30 98t30 80t24 55.5t11 23l183 -93l-8 -16.5
t-20 -45t-25.5 -66t-25 -80t-19.5 -88t-8 -89.5q0 -117 80 -185q38 -32 87.5 -51t101 -28.5t99 -10.5t80.5 5q84 15 135.5 43t80 65t39 82t13.5 94q-18 -3 -37.5 -2.5t-39.5 -1.5q-78 -3 -137.5 11t-103.5 37.5t-74 53t-49 57.5q-27 40 -43 86t-18 97q-6 100 40 186
q45 86 125.5 132.5t184.5 46.5q128 0 218 -93q75 -76 110 -215zM774 284q19 -29 51.5 -43t70 -18.5t76.5 -1t72 9.5q-5 58 -14.5 100.5t-20.5 72t-23 48t-22 28.5q-27 30 -70 30q-92 0 -129 -69q-19 -36 -16.5 -80t25.5 -77zM1121 1055l-147 -146l-148 148l146 147z
M826 1057l-147 -146l-148 148l146 147z" />
    <glyph glyph-name="uFED6" unicode="&#x642;" horiz-adv-x="1299" arabic-form="final" 
d="M1203 205h106v-205h-34h-39h-32h-13q-5 -51 -19.5 -110.5t-49.5 -119.5q-107 -180 -365 -227q-22 -3 -48 -5t-56 -2q-49 0 -105 7t-112.5 22.5t-111.5 42t-101 65.5q-75 64 -114 150.5t-39 191.5q0 56 9 112.5t23 109t30 98t30.5 80t24.5 55t11 23.5l182 -93l-8 -16.5
t-19.5 -45t-25 -66t-25.5 -80t-19.5 -88t-7.5 -89.5q0 -118 80 -185q37 -32 87 -51t101 -28.5t98.5 -10.5t80.5 5q75 13 123 39.5t76.5 61t42.5 74.5t20 80q-48 -1 -97.5 0t-92.5 9q-90 14 -150.5 50t-106.5 103q-29 42 -44 92.5t-15 106.5q0 69 23.5 134t67.5 116
q50 59 119 90t150 31q145 0 240 -104q75 -81 105 -217q20 -92 20 -206zM706 281q19 -28 46.5 -43.5t63.5 -22.5t81 -8.5t101 -1.5q0 69 -7 117.5t-17.5 81.5t-23 53t-23.5 32q-34 38 -89 38q-46 0 -76 -17.5t-47.5 -42.5t-24.5 -53.5t-7 -49.5q0 -49 23 -83zM1083 1051
l-147 -146l-148 148l146 147zM787 1053l-147 -146l-148 148l146 147z" />
    <glyph glyph-name="uFED7" unicode="&#x642;" horiz-adv-x="733" arabic-form="initial" 
d="M212 209q53 0 94 4.5t71 12t51.5 18.5t35.5 25q-29 -5 -59.5 -8t-62.5 -3q-44 0 -87 8t-81 28l1 -1q-42 21 -71 50.5t-47 63t-26.5 70.5t-8.5 73q0 45 12 87t32 75q16 25 42 51.5t59 47.5t73 34.5t85 13.5q52 0 107.5 -20.5t112.5 -68.5q42 -37 72 -85.5t48.5 -101
t27 -106.5t8.5 -101q0 -50 -8.5 -92t-22.5 -70q-19 -37 -52 -75t-86.5 -69t-132 -50.5t-187.5 -19.5h-230q-21 0 -40 8.5t-33.5 22.5t-22.5 33.5t-8 40.5t8 40t22.5 33.5t33.5 22.5t40 8h230zM362 1125l-147 -146l-148 148l146 147zM657 1123l-147 -146l-148 148l146 147z
M342 458q41 0 80 6.5t67 14.5q-10 41 -28 77.5t-46 61.5q-26 23 -48.5 32t-41.5 9q-31 0 -54.5 -17t-34.5 -36q-14 -22 -14 -56q0 -23 10 -45t35 -35q13 -7 32.5 -9.5t42.5 -2.5z" />
    <glyph glyph-name="uFED8" unicode="&#x642;" horiz-adv-x="902" arabic-form="medial" 
d="M911 0q-106 0 -198 3t-178 23q-27 7 -53 14.5t-50 16.5q-91 -32 -203 -45.5t-240 -11.5h-7q-21 0 -40 8.5t-33.5 22.5t-22.5 33.5t-8 40.5t8 40t22.5 33.5t33.5 22.5t40 8h7q63 0 120 1t101 7q-10 13 -18.5 24.5t-16.5 25.5q-17 30 -28.5 70t-14.5 82q-8 109 37 192
q38 68 104 107q68 40 163 46q32 2 68.5 -6t71.5 -25q86 -40 135 -112q46 -67 51 -153q4 -87 -40 -187q-5 -11 -16.5 -27.5t-31.5 -39.5q58 -6 115 -5.5t122 0.5v-209zM535 366q41 89 8 138q-9 15 -23 25t-28 17t-26 10t-18 3q-29 -2 -47 -7.5t-29 -13t-16 -14.5t-7 -11
q-9 -17 -11.5 -38.5t-1 -42t6.5 -38t10 -26.5q15 -27 36.5 -48t47.5 -38q49 26 71.5 50.5t26.5 33.5zM749 1061l-147 -146l-148 148l146 147zM453 1062l-147 -146l-148 148l146 147z" />
    <glyph glyph-name="u0643" unicode="&#x643;" horiz-adv-x="1773" arabic-form="isolated" 
d="M1291 742q44 -51 78 -99t58 -93q68 -129 54 -236q-1 -6 -5.5 -27.5t-15.5 -50.5t-30 -62t-50 -62q-36 -35 -83.5 -58.5t-113.5 -37.5q-61 -14 -142 -20.5t-187 -6.5h-12q-9 0 -29 0.5t-46.5 2t-56.5 3.5t-59.5 4t-55.5 4.5t-44 5.5q-68 10 -129 32.5t-112.5 53.5
t-93.5 69.5t-70 82.5q-58 89 -58 201q0 111 62 241l185 -88q-28 -58 -36 -100t-5.5 -71t11 -46t13.5 -25q32 -50 108.5 -87t188.5 -57q47 -9 89.5 -13t74.5 -6t51.5 -2h19.5h3q318 0 386 65q11 11 18.5 25t12.5 26q5 14 7 28l1 2q5 43 -32.5 113.5t-109.5 153.5
q-32 37 -63 68t-55.5 54t-40 36.5l-15.5 13.5l22 172l677 314l86 -186l-538 -249q20 -20 40.5 -42t41.5 -46z" />
    <glyph glyph-name="uFEDA" unicode="&#x6a9;" horiz-adv-x="1736" arabic-form="final" 
d="M1463 438q34 -69 79 -114t87 -71.5t74.5 -37t43.5 -11.5h-1v-204q-27 0 -60.5 6.5t-69.5 20t-72 32.5t-68 45q-13 10 -26.5 21t-27.5 25q-9 -14 -20 -28t-25 -27q-36 -35 -84 -58t-113 -38q-62 -14 -142.5 -20.5t-186.5 -6.5h-29q-36 0 -102 3t-145 17q-320 53 -434 226
q-58 88 -58 200q0 109 61 240l185 -88q-72 -155 -17 -239q32 -48 107 -83t186 -54q47 -8 90.5 -11.5t76.5 -5t53 -1l20 0.5h4q319 0 386 66q11 11 18.5 24.5t12.5 25.5q5 14 8 28v2q2 9 0.5 19.5t-3.5 22.5l-10 28q-5 12 -10 25t-11 24q-37 67 -106 147q-32 37 -63 68.5
t-56 54.5t-41 36.5l-16 13.5l22 172l678 314l86 -186l-539 -249q20 -20 40 -42t40 -46q42 -48 69.5 -93.5t50.5 -88.5v1q2 -5 5.5 -10.5t5.5 -10.5q5 -11 13 -25l16 -28z" />
    <glyph glyph-name="uFEDB" unicode="&#x6a9;" horiz-adv-x="903" arabic-form="initial" 
d="M-18 0q-21 0 -40 8.5t-33.5 22.5t-22.5 33.5t-8 40.5t8 40t22.5 33.5t33.5 22.5t40 8h19q158 0 254.5 14.5t131.5 47.5q20 19 28 44.5t10 35.5v1q6 42 -30.5 112.5t-108.5 152.5q-32 37 -63.5 68.5t-56 55t-40.5 37l-16 13.5l22 172l677 313l86 -186l-538 -249
q20 -20 40.5 -41.5t41.5 -46.5q88 -101 136 -192q68 -128 53 -235q-1 -7 -5 -28.5t-15 -50.5t-30 -61.5t-50 -62.5q-36 -34 -83.5 -57.5t-113.5 -37.5q-60 -14 -143 -20.5t-187 -6.5v-1h-19z" />
    <glyph glyph-name="uFEDC" unicode="&#x6a9;" horiz-adv-x="915" arabic-form="medial" 
d="M747 279q50 -42 98.5 -56t77.5 -14v-209q-74 0 -156 31.5t-152 91.5q-26 21 -48 45q-8 -12 -18 -24t-22 -23q-70 -67 -197 -95q-123 -27 -336 -27v1h-12q-21 0 -40 8.5t-33.5 22.5t-22.5 33.5t-8 40.5t8 40t22.5 33.5t33.5 22.5t40 8h12q161 0 258.5 13.5t132.5 46.5
q10 9 17 20.5t11.5 22.5t7 20.5t3.5 15.5v2q1 8 0.5 16.5t-2.5 18.5q-3 11 -7 25q-4 11 -10.5 26.5t-15.5 32.5q-18 33 -44 70t-60 76q-32 37 -63.5 68.5t-56.5 55t-41 37l-16 13.5l23 172l677 313l86 -186l-538 -249q40 -40 82 -88t74.5 -93t55.5 -89v2q2 -5 5 -10.5
t5 -10.5l47 -97q35 -62 64 -105.5t58 -68.5z" />
    <glyph glyph-name="u06AF" unicode="&#x6af;" horiz-adv-x="1768" arabic-form="isolated" 
d="M1291 742q44 -51 78 -99t58 -93q68 -129 54 -236q-1 -6 -5.5 -27.5t-15.5 -50.5t-30 -62t-50 -62q-36 -35 -83.5 -58.5t-113.5 -37.5q-61 -14 -142 -20.5t-187 -6.5h-12q-9 0 -29 0.5t-46.5 2t-56.5 3.5t-59.5 4t-55.5 4.5t-44 5.5q-68 10 -129 32.5t-112.5 53.5
t-93.5 69.5t-70 82.5q-58 89 -58 201q0 111 62 241l185 -88q-28 -58 -36 -100t-5.5 -71t11 -46t13.5 -25q32 -50 108.5 -87t188.5 -57q47 -9 89.5 -13t74.5 -6t51.5 -2h19.5h3q318 0 386 65q11 11 18.5 25t12.5 26q5 14 7 28l1 2q5 43 -32.5 113.5t-109.5 153.5
q-32 37 -63 68t-55.5 54t-40 36.5l-15.5 13.5l22 172l677 314l86 -186l-538 -249q20 -20 40.5 -42t41.5 -46zM1585 1401l32 -88l-572 -264v106z" />
    <glyph glyph-name="uFB93" unicode="&#x6af;" horiz-adv-x="1749" arabic-form="final" 
d="M1476 439q34 -69 79 -114t87 -71.5t74.5 -37t43.5 -11.5h-1v-205q-27 0 -60.5 7t-69.5 20t-72 32.5t-68 45.5q-13 10 -26.5 21t-27.5 25q-9 -14 -20 -28t-25 -27q-36 -35 -84 -58t-113 -38q-62 -14 -142.5 -20.5t-186.5 -6.5h-29q-36 0 -102 3t-145 17q-320 53 -434 226
q-58 88 -58 200q0 109 61 240l185 -88q-72 -155 -17 -239q32 -48 107 -83t186 -54q47 -8 90.5 -11.5t76.5 -5t53 -1l20 0.5h4q319 0 386 66q11 11 18.5 24.5t12.5 25.5q5 14 8 28v2q2 9 0.5 19.5t-3.5 22.5l-10 28q-5 12 -10 25t-11 24q-37 67 -106 147q-32 37 -63 68.5
t-56 54.5t-41 36.5l-16 13.5l22 172l678 314l86 -186l-539 -249q20 -20 40 -42t40 -46q42 -48 69.5 -93.5t50.5 -88.5v1q2 -5 5.5 -10.5t5.5 -10.5q5 -11 13 -25l16 -28zM1585 1401l32 -88l-572 -264v106z" />
    <glyph glyph-name="uFB94" unicode="&#x6af;" horiz-adv-x="912" arabic-form="initial" 
d="M439 752q88 -101 136 -192q68 -128 53 -235q-1 -7 -5 -28.5t-15 -50.5t-30 -61.5t-50 -62.5q-36 -34 -83.5 -57.5t-113.5 -37.5q-61 -14 -147.5 -20.5t-192.5 -6.5h-9q-21 0 -40 8.5t-33.5 22.5t-22.5 33.5t-8 40.5t8 40t22.5 33.5t33.5 22.5t40 8h19q157 0 254 14
t132 47q9 9 16 20.5t11.5 22.5t7 21t3.5 15v2q6 42 -30.5 112.5t-108.5 152.5q-32 37 -63.5 68.5t-56 55t-40.5 37l-16 13.5l22 172l677 313l86 -186l-538 -249q20 -20 40.5 -41.5t41.5 -46.5zM724 1415l32 -88l-572 -264v106z" />
    <glyph glyph-name="uFB95" unicode="&#x6af;" horiz-adv-x="917" arabic-form="medial" 
d="M748 280q50 -42 98.5 -56.5t77.5 -14.5v-209q-74 0 -156 32t-152 92q-26 21 -48 45q-8 -12 -18 -24t-22 -23q-70 -67 -197 -95q-62 -14 -147 -20.5t-191 -6.5h-11q-21 0 -40 8.5t-33.5 22.5t-22.5 33.5t-8 40.5t8 40t22.5 33.5t33.5 22.5t40 8h11q161 0 259.5 14
t133.5 47q20 19 28.5 44t10.5 36v1q1 8 0.5 16.5t-2.5 18.5q-3 11 -7 25q-4 11 -10.5 26.5t-15.5 32.5q-18 33 -44 70t-60 76q-32 37 -63.5 68.5t-56.5 55t-41 37l-16 13.5l23 172l677 313l86 -186l-538 -249q40 -40 82 -88t74.5 -93t55.5 -89v2q2 -5 5 -10.5t5 -10.5
l47 -97q35 -62 64 -105.5t58 -68.5zM720 1414l32 -88l-572 -264v106z" />
    <glyph glyph-name="u0644" unicode="&#x644;" horiz-adv-x="1240" arabic-form="isolated" 
d="M1159 33q1 -11 0.5 -38t-8.5 -63q-11 -60 -37 -112t-64 -95q-145 -159 -439 -159q-54 0 -106.5 9.5t-100.5 28.5q-112 43 -179 129q-20 25 -39 60.5t-30.5 81.5t-12 103t16.5 125q12 49 29 104t33.5 102.5t28.5 79.5t13 35l191 -74l-5.5 -14t-13.5 -37t-18.5 -53
t-21 -62.5t-20.5 -65.5t-17 -62q-30 -125 27 -196q32 -41 93 -65t132 -24q202 0 286 90q23 25 34.5 50.5t16.5 46.5t5 35.5v17.5l1 15q0 40 -0.5 89.5t-1.5 115t-2 150.5t-2 196.5t-1.5 252.5t-0.5 319h205q0 -182 1 -324.5t1.5 -253.5t1.5 -194.5t2 -147t1.5 -110.5
t0.5 -86z" />
    <glyph glyph-name="uFEDE" unicode="&#x644;" horiz-adv-x="1193" arabic-form="final" 
d="M1203 209v-209h-10q-47 0 -77 5t-47 11q-20 7 -30 17q-15 -99 -52.5 -176.5t-86.5 -130.5q-35 -37 -76 -65.5t-90 -48.5q-53 -21 -113 -32t-127 -11q-55 0 -107.5 11.5t-99.5 33t-88 52.5t-72 70q-61 78 -79 176q-10 51 -7.5 106t16.5 113q12 49 27.5 99.5t30 92.5t25 69
t11.5 30l190 -75q0 -1 -9.5 -26t-22.5 -63t-28 -84.5t-25 -89.5q-32 -139 32 -221q33 -42 87.5 -65.5t118.5 -23.5q170 0 255 91q36 38 54.5 82t26.5 82t8 64v29v22v999h205q1 -159 1 -308v-130.5v-132t-0.5 -122t-0.5 -102.5q0 -40 4.5 -66.5t20.5 -42.5t45 -23t79 -7h11z
" />
    <glyph glyph-name="uFEDF" unicode="&#x644;" horiz-adv-x="467" arabic-form="initial" 
d="M416 1183q0 -6 0.5 -55t1.5 -124t1.5 -165t1 -178t1 -163t0.5 -120q0 -24 -0.5 -55t-6 -65t-17 -69t-32.5 -68q-25 -39 -62.5 -62.5t-85.5 -36.5t-105.5 -17.5t-123.5 -4.5h-7q-21 0 -40 8.5t-33.5 22.5t-22.5 33.5t-8 40.5t8 40t22.5 33.5t33.5 22.5t40 8h7q26 0 57 2.5
t59.5 9t52.5 18.5t37 31q9 13 13.5 24.5t6.5 23t2.5 24.5t0.5 30q0 32 -0.5 84t-0.5 115t-1 132.5t-1.5 137t-1 129t-1 109t-1 75.5t-0.5 29h205z" />
    <glyph glyph-name="uFEE0" unicode="&#x644;" horiz-adv-x="578" arabic-form="medial" 
d="M586 209v-209h-3q-27 0 -61 3t-70 12t-71 26.5t-65 47.5l-15 16q-50 -48 -114 -73q-41 -17 -91.5 -24.5t-103.5 -7.5h-10q-21 0 -40 8.5t-33.5 22.5t-22.5 33.5t-8 40.5t8 40t22.5 33.5t33.5 22.5t40 8h10q57 0 102.5 12.5t69.5 39.5q16 18 24.5 53.5t12 70.5t3.5 62v27
v654h205v-646q0 -60 4.5 -102.5t12 -71.5t17 -45.5t18.5 -25.5q5 -5 13 -10.5t21.5 -9.5t33.5 -6t49 -2h8z" />
    <glyph glyph-name="u0645" unicode="&#x645;" horiz-adv-x="1102" arabic-form="isolated" 
d="M1001 541q59 -119 47 -234q-11 -104 -79 -175q-47 -48 -103 -66q-34 -11 -67.5 -10t-62.5 14q-56 23 -102.5 45t-84.5 39q-55 26 -97.5 44.5t-68.5 24.5q-11 2 -14.5 2h-4.5t-2 -1q-2 -2 -4 -3q-5 -4 -10.5 -14.5t-9.5 -44.5q-2 -20 -3 -52t-0.5 -71.5t2 -84.5t3.5 -90
l2.5 -87.5t3 -112t2.5 -121.5t1 -116h-204q-1 54 -2 114.5t-2.5 119t-3 110t-2.5 86.5q-4 100 -5 187.5t4 139.5q3 22 8 47.5t15.5 51t27.5 50t44 46.5q71 59 164 50q28 60 57 107.5t61 82.5t69.5 57.5t82.5 31.5q65 13 119 2t97 -36t73.5 -60.5t48.5 -72.5zM834 294
q15 30 12 70t-21.5 74.5t-50 55.5t-72.5 13q-24 -5 -51.5 -40t-62.5 -106q11 -5 23 -10.5t24 -10.5q37 -17 79 -36.5t93 -41.5q5 3 12.5 10.5t14.5 21.5z" />
    <glyph glyph-name="uFEE2" unicode="&#x645;" horiz-adv-x="1234" arabic-form="final" 
d="M1076 254q23 -25 67.5 -37t100.5 -12v-205q-52 0 -103 8t-91 24q-61 24 -106 65q-19 -17 -40.5 -29.5t-44.5 -20.5q-34 -11 -67.5 -10t-62.5 14q-56 24 -102.5 45.5t-84.5 39.5q-55 25 -97.5 43.5t-68.5 24.5q-11 3 -14.5 3h-4.5q-5 -2 -9 -5t-7 -10t-5.5 -18t-4.5 -30
q-2 -20 -3 -55.5t-0.5 -79t2 -91.5t3.5 -93q1 -35 3 -81t3.5 -97.5t3 -107t1.5 -110.5h-204q-1 54 -2.5 108t-3 104.5t-3.5 95.5t-3 80q-2 50 -3.5 101t-1.5 97.5t0.5 85.5t3.5 65q3 22 8 47.5t15.5 51t27.5 50t44 46.5q73 59 164 49q28 60 57 107.5t61 83t69.5 57.5
t82.5 31q65 13 119 2.5t97 -35.5t73.5 -60.5t48.5 -72.5q50 -104 49 -198q3 -16 10.5 -35t22.5 -36zM800 244q22 17 31 43t8 55.5t-12 58t-30 50t-45 33t-57 5.5q-24 -5 -51.5 -40t-62.5 -106q11 -5 23 -10.5t24 -11.5q37 -17 79 -36t93 -41z" />
    <glyph glyph-name="uFEE3" unicode="&#x645;" horiz-adv-x="920" arabic-form="initial" 
d="M558 652q98 0 178 -63q38 -30 63 -65t36 -61q19 -45 25.5 -86t4.5 -76t-10 -64.5t-18 -51.5q-16 -36 -37 -64t-45 -49.5t-48 -36t-46 -22.5q-19 -7 -42.5 -11.5t-50.5 -4.5q-49 0 -108.5 19t-129.5 70q-12 8 -22.5 16.5t-20.5 16.5q-36 -36 -72.5 -59t-72 -36.5
t-69 -18.5t-62.5 -5h-28q-21 0 -40 8.5t-33.5 22.5t-22.5 33.5t-8 40.5t8 40t22.5 33.5t33.5 22.5t40 8h28q17 0 37.5 3t43.5 14.5t47.5 35t50.5 64.5l5 8q46 75 79 125.5t62 85.5q36 43 75.5 67t88.5 34q30 6 58 6zM567 201q34 0 54.5 19.5t29 48t5 62t-18 60.5t-39.5 43
t-59 11q-12 -2 -23 -9.5t-25.5 -25t-34.5 -47.5t-49 -76q18 -16 38 -31.5t41 -27.5t41.5 -19.5t39.5 -7.5z" />
    <glyph glyph-name="uFEE4" unicode="&#x645;" horiz-adv-x="1004" arabic-form="medial" 
d="M1011 0q-72 0 -135.5 23.5t-113.5 68.5q-27 -28 -56 -46.5t-55 -28.5q-26 -9 -60.5 -14t-76.5 1t-90.5 26t-103.5 60q-12 8 -22.5 17t-21.5 17q-27 -30 -57 -53q-93 -71 -224 -71h-13q-21 0 -40 8.5t-33.5 22.5t-22.5 33.5t-8 40.5t8 40t22.5 33.5t33.5 22.5t40 8h13
q31 0 55 6.5t45 21.5t41.5 39t46.5 60q24 34 43 61.5t36 52.5q28 42 49.5 72.5t44.5 53.5q29 31 61.5 48.5t71.5 25.5q65 13 124.5 -1.5t112.5 -54.5q38 -31 63 -66t36 -61q14 -35 21 -67.5t9 -61.5q0 -17 8.5 -40.5t28.5 -45.5q22 -24 52 -33.5t67 -9.5v-209zM581 210
q29 12 44.5 36.5t20 53t-2 58.5t-22 52.5t-39 34t-53.5 4.5q-15 -2 -33.5 -22t-36.5 -46t-34 -52t-26 -41q21 -18 44.5 -35t48 -29t47.5 -16.5t42 2.5z" />
    <glyph glyph-name="u0646" unicode="&#x646;" horiz-adv-x="1236" arabic-form="isolated" 
d="M599 -440q-42 0 -102 6.5t-123 28.5q-150 51 -229 170q-78 119 -70 287q8 178 108 409l188 -81q-75 -174 -89 -301.5t34 -201.5q25 -38 63.5 -60t79.5 -33.5t78.5 -15t61.5 -3.5q240 0 317 123q22 36 31.5 79t10.5 89t-5 91t-15 84q-11 48 -24.5 90.5t-25 73.5t-20 49.5
l-8.5 18.5l1 -1l182 94l9.5 -21t23.5 -57.5t30 -86t30 -106.5q30 -132 27 -244q-6 -152 -71 -258q-66 -107 -187 -165q-127 -58 -306 -58zM761 620l-147 -146l-148 148l146 147z" />
    <glyph glyph-name="uFEE6" unicode="&#x646;" horiz-adv-x="1436" arabic-form="final" 
d="M659 -430q-42 0 -102 7t-123 28q-150 51 -229 170q-78 119 -70 287q8 178 108 409l188 -81q-75 -174 -89 -301.5t34 -201.5q25 -38 63.5 -60t79.5 -33.5t78.5 -15t61.5 -3.5q242 0 320 114q66 96 31 289q-12 66 -31.5 128.5t-38.5 113.5q-13 30 -19 48t-7 20l193 68
l23 -60q12 -27 30 -62.5t44 -72.5q55 -81 116.5 -119t127.5 -38v-204q-59 0 -114.5 12.5t-107.5 43.5q0 -169 -78 -283q-138 -203 -489 -203zM826 637l-147 -146l-148 148l146 147z" />
    <glyph glyph-name="uFEE7" unicode="&#x646;" horiz-adv-x="501" arabic-form="initial" 
d="M384 1006l-147 -146l-148 148l146 147zM-104 105q0 21 8 40t22.5 33.5t33.5 22.5t40 8q83 0 132.5 7t76 17t36.5 20t13 16q2 3 3.5 13t0.5 27.5t-6.5 42.5t-17.5 59q-9 28 -20.5 54t-23 47.5t-21.5 38t-17 25.5l159 128q15 -18 31 -44t31.5 -56t29.5 -62.5t25 -63.5
q35 -100 36 -178t-33 -134q-37 -62 -86.5 -95.5t-106 -49t-117.5 -18.5t-121 -3h-4q-21 0 -40 8.5t-33.5 22.5t-22.5 33.5t-8 40.5z" />
    <glyph glyph-name="uFEE8" unicode="&#x646;" horiz-adv-x="547" arabic-form="medial" 
d="M416 1010l-147 -147l-148 148l146 147zM-104 105q0 21 8 40t22.5 33.5t33.5 22.5t40 8h4q58 1 90.5 18t48.5 38.5t19.5 41t3.5 25.5v36.5t0.5 50t1 54t1 50t0.5 37v14.5l205 -1v-241q0 -31 5 -50.5t12.5 -31t15 -17t12.5 -8.5q13 -7 30.5 -10.5t35.5 -4.5t34.5 -1h29.5h5
q21 0 40 -8t33.5 -22.5t22.5 -33.5t8 -40t-9 -40.5t-24 -33.5t-35 -22.5t-41 -8.5q-17 0 -42.5 1t-55.5 5t-62.5 13t-63.5 25q-14 7 -28 16t-28 21q-44 -37 -101 -58q-37 -14 -78.5 -18.5t-89.5 -4.5v1q-21 0 -40 8t-33.5 22.5t-22.5 33.5t-8 40z" />
    <glyph glyph-name="u0648" unicode="&#x648;" horiz-adv-x="852" arabic-form="isolated" 
d="M720 526q22 -44 35.5 -91t21 -94.5t10.5 -92t3 -81.5q0 -166 -82 -299.5t-241 -228.5q-57 -33 -106.5 -55t-87 -35.5t-60 -19t-24.5 -5.5l-66 196v-1l21.5 5.5t56 16.5t78.5 29.5t89 45.5q126 77 179 182h-16q-103 1 -177 19t-124 53q-29 20 -57 50t-47.5 71t-26.5 94
t6 120q12 60 38 113t63 94q95 104 228 104q93 0 166 -48.5t120 -141.5zM533 209h27.5t25.5 1q-2 72 -14.5 127.5t-33.5 98.5q-13 26 -26.5 41.5t-27 23.5t-26.5 10.5t-24 2.5q-26 0 -47.5 -11.5t-38 -31t-27.5 -44.5t-16 -52q-6 -27 -5 -47.5t7 -35.5t16.5 -26.5t24.5 -21.5
q4 -3 15.5 -8.5t33 -11t55 -10t81.5 -5.5z" />
    <glyph glyph-name="uFEEE" unicode="&#x648;" horiz-adv-x="796" arabic-form="final" 
d="M544 209q1 50 -4 88.5t-14 67t-20 49t-23 34.5q-30 37 -62 46.5t-61.5 -0.5t-53.5 -35t-37 -57.5t-13 -69t18 -68.5q14 -24 59.5 -38t111.5 -16q19 -1 44.5 -1h54.5zM379 705h13.5t14.5 -1q69 -6 129 -38.5t105 -87.5q63 -77 91 -193q9 -41 13.5 -83.5t3.5 -92.5h62v-209
h-89q-35 -118 -115 -215t-204 -169q-54 -31 -105 -52t-90.5 -34t-64.5 -18.5t-27 -5.5l-64 195l23.5 5.5t60 17t81.5 29.5t88 43q141 82 198 203q-18 0 -34 0.5t-30 0.5q-101 3 -179 29q-111 40 -162 126q-24 40 -34.5 90.5t-7.5 103.5t19.5 106t45.5 100q46 72 113 111
t145 39z" />
    <glyph glyph-name="u0647" unicode="&#x647;" horiz-adv-x="852" arabic-form="isolated" 
d="M765 490q73 -120 49 -249q-10 -53 -44.5 -98.5t-89.5 -78.5q-52 -32 -116.5 -48t-137.5 -16q-32 0 -63 3q-24 2 -52.5 10t-58 22.5t-57.5 35.5t-51 50q-14 17 -27 41t-22.5 54t-13 66.5t2.5 80.5q4 29 11.5 65.5t27.5 84.5q22 49 58.5 104.5t90.5 123.5l46 58l70 -26
q2 -1 22 -9t51.5 -23.5t71 -38t79.5 -52.5q101 -75 153 -160zM613 279q18 100 -120 204q-29 21 -57 38t-52 29q-32 -43 -50 -74t-27.5 -56t-13.5 -45t-7 -40q-3 -27 1 -48.5t18 -37.5q15 -20 37.5 -30t39.5 -12q11 -1 22 -1.5t22 -0.5q49 0 83.5 9t57 21t33.5 24.5t13 19.5z
" />
    <glyph glyph-name="uFEEA" unicode="&#x647;" horiz-adv-x="807" arabic-form="final" 
d="M417 100q-97 0 -167 26t-112 74q-25 31 -35 65.5t-10 64.5q0 20 6 46.5t19.5 55t35.5 58.5t53 57q61 54 123.5 91.5t108.5 57.5l-8 54l-9 54l192 39q4 -29 10 -71q5 -36 13.5 -90t20.5 -129q12 -80 21 -135t15.5 -89.5t10 -51.5t5.5 -21q13 -29 34.5 -38t62.5 -9
q21 0 39 -9.5t32 -24.5t22 -34.5t8 -40.5t-8 -39.5t-22 -32t-32 -21t-39 -7.5q-29 0 -69.5 4.5t-82.5 24.5q-27 14 -51 33.5t-44 47.5q-38 -5 -74 -7.5t-69 -2.5zM462 486q-23 -11 -56.5 -25t-62.5 -32t-45 -41.5t-3 -54.5q8 -20 35.5 -26t87.5 -6q16 0 34 0.5t38 2.5z" />
    <glyph glyph-name="uFEEB" unicode="&#x647;" horiz-adv-x="1136" arabic-form="initial" 
d="M-19 0q-21 1 -39 9t-32 22t-22 33t-8 40t8 39.5t21.5 33t31.5 23t39 9.5h1h4h186q-57 63 -76.5 134.5t-0.5 146.5q23 93 72 163q14 21 31 39.5t35 34.5q-18 7 -28 11t-11 4l75 195q3 -1 29 -11t66.5 -26t92 -37t107 -44.5t111 -48t102.5 -47.5q85 -42 149.5 -97
t103.5 -121q43 -72 52 -147t-15 -147q-27 -78 -95 -129t-169 -68q-77 -14 -164.5 -7t-176.5 33l-9 3q-74 -26 -147 -34.5t-130 -8.5h-194zM420 591q-17 0 -33 -10q-30 -17 -54 -54t-37 -88q-6 -24 3.5 -47.5t30 -45.5t50 -41.5t64.5 -35.5q21 14 35 29t22.5 29.5t13 29
t6.5 26.5q8 51 -2 88t-24 60q-17 27 -34.5 41t-24.5 16q-8 3 -16 3zM677 214q36 -1 68.5 2.5t58 12t42 21.5t22.5 30q10 28 4.5 59t-24.5 62t-51 60t-74 54q8 -36 10 -77.5t-6 -89.5q-14 -76 -50 -134z" />
    </font>
</defs>
</svg>
